Szukaj Dzisiejsze posty Zaznacz wszystkie fora jako przeczytane
Komunikaty

Odpowiedz

 
Narzędzia wątku Wygląd
stare 04-27-2014, 19:54   #1
 
Avatar Sagittario
 
Sagittario jest nieaktywny Sagittario
Kobieta

Zarejestrowany: Sep 2011
Postów: 7 191
Domyślnie Vabank (1981)

Vabank (1981) TVRip.x264.AC3-alE13 | Film PL



gatunek: Komedia kryminalna
produkcja: Polska
premiera: pażdziernik 1981 (świat)
reżyseria: Juliusz Machulski
scenariusz: Juliusz Machulski

Legenda złodziejskiego światka Warszawy lat 30. - kasiarz Henryk Kwinto, wychodzi na wolność po ośmiu latach więzienia. Planuje zemstę na bogatym dyrektorze banku - Kramerze, który przyczynił się do wsadzenia go za kratki, a w dodatku pomógł jego najlepszemu przyjacielowi w przeniesieniu się na tamten świat. Wraz z Moksem i Nutą - dwoma młodymi złodziejaszkami, których dotychczasowe "doświadczenie zawodowe" ogranicza się do napadu na sklep jubilerski i swoim starym przyjacielem Duńczykiem - mistrzem od rozpracowywania wszelkiego rodzaju alarmów, decyduje się napaść na bank, którego dyrektorem jest Kramer i tak pokierować całą kradzieżą, żeby dyrektor został uznany za winnego. W realizacji misternego planu panom pomaga piękna dziewczyna, Natalia, która w wieczór, kiedy dochodzi do napadu, w sprytny sposób pozbawia Kramera alibi...







Vabank (1981) TVRip.x264.AC3-alE13 | Film PL

[spoiler]
Cytat:
Format : Matroska
Format version : Version 4 / Version 2
File size : 3.95 GiB
Duration : 1h 44mn
Overall bit rate : 5 392 Kbps
Movie name : Vabank (1981)-alE13
Encoded date : UTC 2014-04-26 06:09:24
Writing application : mkvmerge v6.9.1
Writing library : libebml v1.3.0 + libmatroska v1.4.1

Video
ID : 1
Format : AVC
Format/Info : Advanced Video Codec
Format profile : High@L4.1
Format settings, CABAC : Yes
Format settings, ReFrames : 9 frames
Codec ID : V_MPEG4/ISO/AVC
Duration : 1h 44mn
Bit rate : 4 885 Kbps
Width : 1 280 pixels
Height : 720 pixels
Display aspect ratio : 16:9
Frame rate mode : Constant
Frame rate : 25.000 fps
Color space : YUV
Chroma subsampling : 4:2:0
Bit depth : 8 bits
Scan type : Progressive
Bits/(Pixel*Frame) : 0.212
Stream size : 3.49 GiB (89%)
Title : Vabank (1981)_Rip.-alE13
Writing library : x264 core 122 r2184 5c85e0a

Audio
ID : 2
Format : AC-3
Format/Info : Audio Coding 3
Mode extension : CM (complete main)
Format settings, Endianness : Big
Codec ID : A_AC3
Duration : 1h 44mn
Bit rate mode : Constant
Bit rate : 512 Kbps
Channel(s) : 2 channels
Channel positions : Front: L R
Sampling rate : 48.0 KHz
Bit depth : 16 bits
Compression mode : Lossy
Delay relative to video : 9s 150ms
Stream size : 384 MiB (9%)
Title : Vabank (1981)-alE13
Language : Polish


Text
ID : 3
Format : UTF-8
Codec ID : S_TEXT/UTF8
Codec ID/Info : UTF-8 Plain Text
Title : Vabank (1981)-alE13
Language : English
[/spoiler]

Kod:

http://qaz1.pl/download/32d487679c/4f3e195c6bf1fd4af454/dc38f2ac0181d8b79188/Up_upek_2014.rar

or https://www.oboom.com/N8LDDA1T/VabankalE13.part2.rar https://www.oboom.com/9DWMM65P/VabankalE13.part4.rar https://www.oboom.com/6J68R7AO/VabankalE13.part3.rar https://www.oboom.com/FYFIZBYY/VabankalE13.part1.rar https://www.oboom.com/WK30Z2MM/VabankalE13.part5.rar http://filesaur.com/x0vrppzvzjro http://filesaur.com/gdaaixqh69xh http://filesaur.com/mc43siehdt4y http://filesaur.com/3jmp4io5i0j0 http://filesaur.com/g1lqiiehr48c http://uploaded.net/file/5t90rtmg/VabankalE13.part1.rar http://uploaded.net/file/ml21b81h/VabankalE13.part2.rar http://uploaded.net/file/qxdwyzmx/VabankalE13.part3.rar http://uploaded.net/file/r439e1ze/VabankalE13.part4.rar http://uploaded.net/file/hldr9qqa/VabankalE13.part5.rar http://catshare.net/oDJoMChk1ULY8m6H/VabankalE13.part5.rar http://catshare.net/pgJYidLN1IGxWFGN/VabankalE13.part4.rar http://catshare.net/wlkKSDKzKr3jZ1Fy/VabankalE13.part1.rar http://catshare.net/9JZsL81EK48jrHxa/VabankalE13.part3.rar http://catshare.net/Vn9wp3QarLrI2n0g/VabankalE13.part2.rar


Premium konto:

Kod:

 

  Odpowiedź z Cytatem

Odpowiedz


Użytkownicy aktualnie czytający ten temat: 1 (0 użytkownik(ów) i 1 gości)
 
Narzędzia wątku
Wygląd

Skocz do forum

Podobne wątki
Temat Autor wątku Forum Odpowiedzi Ostatni post / autor
Akcja - Tylko dla twoich oczu / For Your Eyes Only (1981) Sagittario Filmy zagraniczne 0 11-20-2012 22:15
Dyskografia - Shakatak - Full Discography (1981-2009) WarezMaster Muzyka 0 08-19-2012 14:11
Thriller - Skanerzy / Scanners (1981) Sagittario Filmy zagraniczne 0 06-19-2012 15:57
Vabank (1981) Rafał Filmy Polskie 1 02-19-2012 10:52
Dramat - Bunkier / The Bunker (1981) Sagittario Filmy zagraniczne 0 10-17-2011 22:58


Czasy w strefie GMT +1. Teraz jest 08:29.

Na górę Na górę



Powered by vBulletin® Version 3.8.6
Copyright ©2000 - 2018, Jelsoft Enterprises Ltd.


Rozdajemy ebooki | Filmy online