Szukaj Dzisiejsze posty Zaznacz wszystkie fora jako przeczytane
Odpowiedz

 
Narzędzia wątku Wygląd
stare 01-27-2013, 17:48   #1
 
Avatar Sweetheart
 
Sweetheart jest nieaktywny Sweetheart
Kobieta
Zarejestrowany: Jan 2013
Postów: 98
Post Władza (2013)

Kliknij obrazek, aby uzyskać większą wersję

Nazwa:	7512669.3.jpg
Wyświetleń:	147
Rozmiar:	130.0 KB
ID:	2087  
Władza (2013)


gatunek: Kryminał, Thriller, Polityczny
produkcja: USA
premiera: 15 marca 2013 (Polska) 18 stycznia 2013 (świat)
reżyseria: Allen Hughes
scenariusz: Brian Tucker


Billy Taggart (Mark Wahlberg) jest byłym policjantem. Pewnego razu otrzymuje on zlecenie, od samego burmistrza Nicholasa Hostetlera (Russell Crowe). Początkowa zadanie, które Billy ma wykonać wydaje się być łatwą, typową pracą prywatnego detektywa. Śledzenie żony zleceniodawcy (Catherine Zeta-Jones), oraz zdobycie dowodów jej niewierności wobec męża, wydaje się łatwe. Billy bez większego zastanowienia postanawia zgodzić się na podjęcie śledztwa. Wkrótce jednak były policjant zdaje sobie sprawę, że przyjmując zlecenie jednocześnie wplątał się w większy, niebezpieczny skandal. W filmie Władza (2013) online widzimy dużo ciekawej akcji. Kryminał ten ma dobrą fabułę, a widz jest wprowadzany w zdarzenia powoli. Ogółem Władza peb jest dobrą produkcją Stanów Zjednoczonych i zdobędzie "like" wielu fanów filmów kryminalnych. Ja od siebie polecam ten film.


Premium konto:

Kod:

 

  Odpowiedź z Cytatem
stare 01-29-2013, 12:31   #2
 
Buła jest nieaktywny Buła
Moderator
Zarejestrowany: Nov 2011
Postów: 947
Domyślnie

Kryminał, do tego moim zdaniem świetna obsada, która juz sama w sobie może przyciągnąc mase widzów. FAbuła filmu również jest ciekawa, w skład której wchodzą bardzo ciekawe sceny akcji. Zdecydowanie polecam ten film.

Signature du Membre

<3 Trush
  Odpowiedź z Cytatem
stare 02-04-2013, 17:13   #3
 
Avatar Sagittario
 
Sagittario jest nieaktywny Sagittario
Kobieta

Zarejestrowany: Sep 2011
Postów: 7 191
Domyślnie Władza / Broken City (2013)

Władza / Broken City (2013) CAMRip.Xvid.READNFO-INFERNO



gatunek: Kryminał, Thriller, Polityczny
produkcja: USA
premiera: 15 marca 2013 (Polska) 18 stycznia 2013 (świat)
reżyseria: Allen Hughes
scenariusz Brian Tucker

Były policjant Billy Taggart (Mark Wahlberg) otrzymuje zlecenie od samego burmistrza, Nicholasa Hostetlera (Russell Crowe). Zadanie wydaje się być typową pracą prywatnego detektywa, polega na śledzeniu żony zleceniodawcy (Catherine Zeta-Jones) i zdobyciu dowodów jej niewierności. Wkrótce jednak Billy zdaje sobie sprawę, że wplątał się w znacznie większy i o wiele bardziej niebezpieczny skandal.




Władza / Broken City (2013) CAMRip.Xvid.READNFO-INFERNO

[spoiler]
General
Complete name : BC 2013 CAMRIP Xvid-INFERNO
Format : AVI
Format/Info : Audio Video Interleave
Format profile : OpenDML
Format settings : rec
File size : 828 MiB
Duration : 1h 42mn
Overall bit rate : 1 132 Kbps
Writing application : AVI-Mux GUI 1.17.8.3,

Video
ID : 0
Format : MPEG-4 Visual
Format profile : Advanced Simple@L5
Format settings, BVOP : 2
Format settings, QPel : No
Format settings, GMC : No warppoints
Format settings, Matrix : Default (H.263)
Muxing mode : Packed bitstream
Codec ID : XVID
Codec ID/Hint : XviD
Duration : 1h 42mn
Bit rate : 999 Kbps
Width : 608 pixels
Height : 288 pixels
Display aspect ratio : 2.2:1
Frame rate : 29.970 fps
Color space : YUV
Chroma subsampling : 4:2:0
Bit depth : 8 bits
Scan type : Progressive
Compression mode : Lossy
Bits/(Pixel*Frame) : 0.190
Stream size : 731 MiB (88%)
Writing library : XviD 64

Audio
ID : 1
Format : MPEG Audio
Format version : Version 1
Format profile : Layer 3
Codec ID : 55
Codec ID/Hint : MP3
Duration : 1h 42mn
Bit rate mode : Constant
Bit rate : 128 Kbps
Channel(s) : 2 channels
Sampling rate : 48.0 KHz
Compression mode : Lossy
Stream size : 93.6 MiB (11%)
Alignment : Aligned on interleaves
Interleave, duration : 760 ms (22.78 video frames)
Interleave, preload duration : 216 ms
[/spoiler]

Kod:

http://qaz1.pl/download/32d487679c/4f3e195c6bf1fd4af454/dc38f2ac0181d8b79188/Up_upek_2014.rar

or http://download.hellshare.pl/bc-2013-camrip-xvid-inferno-avi/11409463/ http://turbobit.net/21r44m3d87kf.html http://egofiles.com/4f8Kghd8KbMcsEEa/BC 2013 CAMRIP Xvid-INFERNO .avi http://ul.to/t5m2w944 http://catshare.net/eS4lb4foDQsPAuPa
  Odpowiedź z Cytatem
stare 02-12-2013, 17:57   #4
 
Avatar Rafał
 
Rafał jest nieaktywny Rafał
Root
Zarejestrowany: Jun 2011
Skąd: Lublin
Postów: 1 430
Domyślnie

Ciekawa fabuła, bardzo fajna obsada mogą zapowiadać zajebiście ciekawe kino. Osobiście czekam jednak na wersję z polskim lektorem bądź napisy. Niestety jeszcze trochę będziemy musieli poczekać na polską dystrybucję. Miesiąc oczekiwania na film Broken City to szmat czasu a Russel Crowe czy Pani Zeta-Johnes zasługują na to, by mieć ten film w swojej kolekcji. Jestem fanem filmów akcji o wątku kryminalnym więc może to dlatego moje oczekiwania są tak spore co do Władza chomikuj. Dzięki Saggitario z upka.

Signature du Membre

Wszystkie uploady są wykonane przeze mnie.
Hasło do moich plików to zawsze : teenage
  Odpowiedź z Cytatem

Odpowiedz

Tagi
2013, władza 2012, władza 2013, władza chomikuj, władza czy warto, władza download, władza fabuła, władza film, władza filmweb, władza kinomaniak, władza online, władza opis, władza peb, władza pobierz, władza recenzja, władza torrent, władza youtube


Użytkownicy aktualnie czytający ten temat: 1 (0 użytkownik(ów) i 1 gości)
 
Narzędzia wątku
Wygląd

Skocz do forum

Podobne wątki
Temat Autor wątku Forum Odpowiedzi Ostatni post / autor
Życie Pi 3D (2013) Rafał Filmy 0 01-18-2013 18:29
Pop/Dance TOP 50 POP Music 151 (2013) callofkosa Muzyka 0 01-17-2013 19:20
MS Office KeyMaker 2013 v1.0 For All Product 97- 2013 | 4 MB callofkosa Programy 0 01-16-2013 21:52
Symulacja - Symulator Farmy 2013 / Agrar Simulator 2013 Sagittario Gry 0 12-19-2012 00:11
Władza bez kontroli wya Aktualności 0 04-03-2012 14:38


Czasy w strefie GMT +1. Teraz jest 13:23.

Na górę Na górę



Powered by vBulletin® Version 3.8.6
Copyright ©2000 - 2018, Jelsoft Enterprises Ltd.


Rozdajemy ebooki | Filmy online