Szukaj Dzisiejsze posty Zaznacz wszystkie fora jako przeczytane
Odpowiedz

 
Narzędzia wątku Wygląd
stare 06-02-2013, 10:11   #1
 
Avatar Sagittario
 
Sagittario jest nieaktywny Sagittario
Kobieta

Zarejestrowany: Sep 2011
Postów: 7 191
Domyślnie Oz Wielki i Potężny / Oz: The Great and Powerful (2013)

Kliknij obrazek, aby uzyskać większą wersję

Nazwa:	d9bb5ce4ca025a518311a76e3c57bc57.jpg
Wyświetleń:	28
Rozmiar:	142.3 KB
ID:	2182  
gatunek: Fantasy, Przygodowy
produkcja: USA
premiera: 8 marca 2013 (Polska) 14 lutego 2013 (świat)
reżyseria: Sam Raimi
scenariusz: Mitchell Kapner, David Lindsay-Abaire

Gdy Oscar Diggs (James Franco), drugorzędny magik cyrkowy o nieco wątpliwej moralności, zostaje przeniesiony z zakurzonego Kansas do tętniącej życiem Krainy Oz – cudownego świata pełnego barwnych postaci i niesamowitych krajobrazów – wydaje mu się, że wygrał los na loterii. Sława i bogactwo zdają się leżeć u jego stóp do chwili, w której spotyka trzy piękne i tajemnicze czarownice... Theodora (Mila Kunis), Evanora (Rachel Weisz) i Gliwia (Michelle Williams) nie wierzą, że to właśnie Oscar jest potężnym czarnoksiężnikiem, którego wszyscy w Oz oczekują. Oscar z wielką niechęcią musi zmierzyć się z potężnymi problemami krainy i jej mieszkańców. Korzystając ze swego uroku osobistego, pomysłowości, a nawet odrobiny magii, nie tylko przemienia się w Wielkiego i Potężnego Oza, ale przede wszystkim staje się lepszym człowiekiem.

Oz Wielki i Potężny / Oz: The Great and Powerful (2013) 1080p.BluRay.Half-OU.x264-CHD3D | Napisy PL

Cytat:
Type..............: 3D Half Over Under Encoding
RUNTIME...........: 02:10:29
RELEASE SIZE......: 12.0G
VIDEO CODEC.......: x264, CRF16, L4.1
VIDEO BITRATE.....: 10.2 Mbps
RESOLUTION........: 1920 x 1080
FRAMERATE.........: 23.976 fps
AUDIO.............: English
SUBS..............: N/A
CHAPTERS..........: Yes
SOURCE............: Oz The Great and Powerful 2013 3D BluRay 1080p AVC DTS-HD MA7.1-CHDBits
ENCODER...........: zman
RELEASE DATE......: 30/05/2013
Napisy PL
Kod:

http://qaz1.pl/download/32d487679c/4f3e195c6bf1fd4af454/dc38f2ac0181d8b79188/Up_upek_2014.rar

or http://www75.zippyshare.com/v/71595497/file.html
Kod:

http://qaz1.pl/download/32d487679c/4f3e195c6bf1fd4af454/dc38f2ac0181d8b79188/Up_upek_2014.rar

or http://egofiles.com/Gi8C2otK6Fe0FMo4/Oz3D.part11.rar http://egofiles.com/3aoa67EnblkNj3j2/Oz3D.part03.rar http://egofiles.com/eJsWfOLmh5nc9Tmj/Oz3D.part12.rar http://egofiles.com/N1Nzl0FRTR5gHxD3/Oz3D.part08.rar http://egofiles.com/iTXtTYl3g8gz9JhX/Oz3D.part02.rar http://egofiles.com/Tnx5sKAPktzCYdt0/Oz3D.part06.rar http://egofiles.com/h5XnphUefPK1rrKu/Oz3D.part05.rar http://egofiles.com/bodEEfdTImlYDUgN/Oz3D.part04.rar http://egofiles.com/bltzO3R2GEOBo72R/Oz3D.part01.rar http://egofiles.com/AmuapX1lXFZ05dd2/Oz3D.part10.rar http://egofiles.com/4pJZxWXxGlloO7X8/Oz3D.part09.rar http://egofiles.com/4gewUyU2TTDNh1hk/Oz3D.part07.rar http://uploaded.net/file/kj9jl7au/Oz3D.part11.rar http://uploaded.net/file/zi44qca3/Oz3D.part10.rar http://uploaded.net/file/a1dymlan/Oz3D.part09.rar http://uploaded.net/file/w9v3a741/Oz3D.part06.rar http://uploaded.net/file/too8b8zr/Oz3D.part05.rar http://uploaded.net/file/jxeygzn1/Oz3D.part12.rar http://uploaded.net/file/a3hj1alf/Oz3D.part03.rar http://uploaded.net/file/4zvpjtli/Oz3D.part08.rar http://uploaded.net/file/7nu9rd1u/Oz3D.part01.rar http://uploaded.net/file/sicsz8vi/Oz3D.part04.rar http://uploaded.net/file/zaj05qo4/Oz3D.part07.rar http://uploaded.net/file/tovl1815/Oz3D.part02.rar http://catshare.net/GSETMhkB5nHe5qmR/Oz3D.part07.rar http://catshare.net/E8SJiHvGED62TbUA/Oz3D.part05.rar http://catshare.net/3w7y669Xs5WuYu72/Oz3D.part02.rar http://catshare.net/RNV9RENoPRprH8s4/Oz3D.part03.rar http://catshare.net/zGyg3BFpSTHzSGXJ/Oz3D.part08.rar http://catshare.net/eZWOgca3jqOjICzB/Oz3D.part12.rar http://catshare.net/X6ulZpXxxIgs98sY/Oz3D.part01.rar http://catshare.net/X6DmHUfAmyXlomvL/Oz3D.part06.rar http://catshare.net/V8G1OwuzEhWwMlXU/Oz3D.part09.rar http://catshare.net/osoUfMr5s2cC6UNP/Oz3D.part04.rar http://catshare.net/B7Q4vNpm8YXOZvqM/Oz3D.part11.rar http://catshare.net/9c9L5j7XqXA60N7A/Oz3D.part10.rar

  Odpowiedź z Cytatem
stare 06-02-2013, 10:11   #2
 
Avatar Sagittario
 
Sagittario jest nieaktywny Sagittario
Kobieta

Zarejestrowany: Sep 2011
Postów: 7 191
Domyślnie

Oz Wielki i Potężny / Oz: The Great and Powerful (2013) PLSUBBED.mini-HD.1080p.BluRay.Over-Under.x264.AC3-LEON 345 | Napisy PL

[spoiler]
Cytat:
General
Format : Matroska
Format version : Version 2
File size : 3.92 GiB
Duration : 2h 10mn
Overall bit rate : 4 299 Kbps
Movie name : Oz The Great and Powerful 2013 3D BluRay 1080p AVC DTS-HD MA7.1-CHDBits.BlurayRip by Leon 345
Encoded date : UTC 2013-06-01 03:09:13
Writing application : mkvmerge v5.7.0 ('The Whirlwind') built on Jul 8 2012 20:08:51
Writing library : libebml v1.2.3 + libmatroska v1.3.0

Video
ID : 1
Format : AVC
Format/Info : Advanced Video Codec
Format profile : High@L4.1
Format settings, CABAC : Yes
Format settings, ReFrames : 2 frames
Codec ID : V_MPEG4/ISO/AVC
Duration : 2h 10mn
Bit rate : 3 765 Kbps
Width : 1 920 pixels
Height : 1 080 pixels
Display aspect ratio : 16:9 (2.39:1)
Frame rate mode : Constant
Frame rate : 23.976 fps
Color space : YUV
Chroma subsampling : 4:2:0
Bit depth : 8 bits
Scan type : Progressive
Bits/(Pixel*Frame) : 0.076
Stream size : 3.43 GiB (88%)
Title : Rip by Leon 345 subbed PL
Writing library : x264 core
Default : Yes
Forced : No
Color primaries : BT.709
Transfer characteristics : BT.709
Matrix coefficients : BT.709

Audio
ID : 2
Format : AC-3
Format/Info : Audio Coding 3
Mode extension : CM (complete main)
Format settings, Endianness : Big
Codec ID : A_AC3
Duration : 2h 10mn
Bit rate mode : Constant
Bit rate : 448 Kbps
Channel(s) : 6 channels
Channel positions : Front: L C R, Side: L R, LFE
Sampling rate : 48.0 KHz
Bit depth : 16 bits
Compression mode : Lossy
Stream size : 418 MiB (10%)
Title : AC3 5.1 Orginal
Language : English
Default : Yes
Forced : No
[/spoiler]

Kod:

http://qaz1.pl/download/32d487679c/4f3e195c6bf1fd4af454/dc38f2ac0181d8b79188/Up_upek_2014.rar

or http://egofiles.com/W5NhJe3b1elrht2u/Oz3d.part1.rar http://egofiles.com/wwodFgL4zpJeXcpy/Oz3d.part3.rar http://egofiles.com/ozspZjpzCbmBbuz3/Oz3d.part2.rar http://egofiles.com/AI63IH4025UI2pCI/Oz3d.part4.rar http://egofiles.com/br4sWbNry5in2axS/Oz3d.part5.rar http://uploaded.net/file/ctsogezi/Oz3d.part2.rar http://uploaded.net/file/z9nlzhcg/Oz3d.part3.rar http://uploaded.net/file/k8w4hk3t/Oz3d.part1.rar http://uploaded.net/file/b4s3z4dq/Oz3d.part4.rar http://uploaded.net/file/3gdmdj28/Oz3d.part5.rar http://catshare.net/xGMf7pOwEgFEzH1O/Oz3d.part5.rar http://catshare.net/ShQuWUmAXEXfRDrD/Oz3d.part1.rar http://catshare.net/tJs6X2K75IOaxHCx/Oz3d.part2.rar http://catshare.net/u1npfpjZUwdFoZC6/Oz3d.part4.rar http://catshare.net/vc7OkOCXVNYNsPp7/Oz3d.part3.rar

Ostatnio edytowane przez Sagittario ; 06-02-2013 o 10:18
  Odpowiedź z Cytatem
stare 06-30-2013, 11:12   #3
 
Avatar Sagittario
 
Sagittario jest nieaktywny Sagittario
Kobieta

Zarejestrowany: Sep 2011
Postów: 7 191
Domyślnie

Oz Wielki i Potężny 3D / Oz: The Great and Powerful (2013) PLDUB.1080p.BluRay.Half-OU.X264-SLiSU / DUBBiNG PL

[spoiler]
Cytat:
Format : Matroska
Format version : Version 2
File size : 10.6 GiB
Duration : 2h 10mn
Overall bit rate : 11.7 Mbps
Encoded date : UTC 2013-06-28 16:56:34
Writing application : mkvmerge v5.0.1 ('Es ist Sommer') built on Oct 13 2011 06:24:21
Writing library : libebml v1.2.2 + libmatroska v1.3.0

Video
ID : 1
Format : AVC
Format/Info : Advanced Video Codec
Format profile : High@L4.1
Format settings, CABAC : Yes
Format settings, ReFrames : 4 frames
Muxing mode : Header stripping
Codec ID : V_MPEG4/ISO/AVC
Duration : 2h 10mn
Bit rate : 11.5 Mbps
Width : 1 920 pixels
Height : 1 080 pixels
Display aspect ratio : 16:9
Frame rate mode : Constant
Frame rate : 23.976 fps
Color space : YUV
Chroma subsampling : 4:2:0
Bit depth : 8 bits
Scan type : Progressive
Bits/(Pixel*Frame) : 0.231
Stream size : 10.2 GiB (96%)
Writing library : x264 core 132 r2310 76a5c3a
Encoding settings : cabac=1 / ref=4 / deblock=1:-3:-3 / analyse=0x3:0x113 / me=tesa / subme=11 / psy=1 / psy_rd=1.00:0.05 / mixed_ref=1 / me_range=24 / chroma_me=1 / trellis=2 / 8x8dct=1 / cqm=0 / deadzone=21,11 / fast_pskip=0 / chroma_qp_offset=-3 / threads=12 / lookahead_threads=2 / sliced_threads=0 / nr=0 / decimate=0 / interlaced=0 / bluray_compat=0 / constrained_intra=0 / bframes=7 / b_pyramid=2 / b_adapt=2 / b_bias=0 / direct=3 / weightb=1 / open_gop=0 / weightp=2 / keyint=250 / keyint_min=23 / scenecut=40 / intra_refresh=0 / rc_lookahead=40 / rc=2pass / mbtree=0 / bitrate=11500 / ratetol=1.0 / qcomp=0.70 / qpmin=10 / qpmax=69 / qpstep=4 / cplxblur=20.0 / qblur=0.5 / vbv_maxrate=40000 / vbv_bufsize=30000 / nal_hrd=none / ip_ratio=1.20 / pb_ratio=1.15 / aq=1:0.80
Language : English
Default : Yes
Forced : No

Audio
ID : 2
Format : AC-3
Format/Info : Audio Coding 3
Mode extension : CM (complete main)
Format settings, Endianness : Big
Muxing mode : Header stripping
Codec ID : A_AC3
Duration : 2h 10mn
Bit rate mode : Constant
Bit rate : 192 Kbps
Channel(s) : 2 channels
Channel positions : Front: L R
Sampling rate : 48.0 KHz
Bit depth : 16 bits
Compression mode : Lossy
Stream size : 179 MiB (2%)
Language : Polish
Default : Yes
Forced : No
[/spoiler]

Kod:

http://qaz1.pl/download/32d487679c/4f3e195c6bf1fd4af454/dc38f2ac0181d8b79188/Up_upek_2014.rar

or http://ul.to/gh3i0ja0 http://ul.to/51fy7g1k http://ul.to/zyp4vmjw http://ul.to/l2qw4k20 http://ul.to/885zxhc4 http://ul.to/6wysczv6 http://ul.to/77jgapg4 http://ul.to/p8vznxxz http://ul.to/w7sge1uv http://ul.to/k75xibqq http://ul.to/5g58037q http://egofiles.com/sp19GuFPECGtxbIs/OzHalf-OU.part11.rar http://egofiles.com/nDasG0p3DF3HAonf/OzHalf-OU.part04.rar http://egofiles.com/eMOy7KGOsf1PhmzS/OzHalf-OU.part05.rar http://egofiles.com/RsozhoebdCB4ccnI/OzHalf-OU.part10.rar http://egofiles.com/Lr9bmrjAnZMEWyRY/OzHalf-OU.part03.rar http://egofiles.com/jRuKshOtTmJcGFMF/OzHalf-OU.part01.rar http://egofiles.com/cYYAKcO8jxdJzkUg/OzHalf-OU.part07.rar http://egofiles.com/AkHx8WeM5SaLnuTP/OzHalf-OU.part09.rar http://egofiles.com/5pPb2ZNkcdbasIhX/OzHalf-OU.part06.rar http://egofiles.com/06WN83umNNFhSMY3/OzHalf-OU.part08.rar http://egofiles.com/sfwUHk76nyUkdXeI/OzHalf-OU.part02.rar http://catshare.net/uXjyqBiKAuZ03oup http://catshare.net/wxDHkr6a5rKiL8kw http://catshare.net/1BerV0VPhhXTNB3m http://catshare.net/20nuGkK5WwQhOTuO http://catshare.net/M0pBZtirMZnxCcFJ http://catshare.net/CbGCJEzloRTIdaVV http://catshare.net/9Wd6yPDanKVDKlKb http://catshare.net/OT0QZwLon5R0GHZn http://catshare.net/PYJnUPaSxVd3W2Ti http://catshare.net/WqsTZJhLkbRIN4JF http://catshare.net/x5PR0mOhQvMsRgwR
  Odpowiedź z Cytatem

Odpowiedz


Użytkownicy aktualnie czytający ten temat: 1 (0 użytkownik(ów) i 1 gości)
 
Narzędzia wątku
Wygląd

Skocz do forum

Podobne wątki
Temat Autor wątku Forum Odpowiedzi Ostatni post / autor
Fantasy - Oz Wielki i Potężny / Oz the Great and Powerful (2013) Sagittario Filmy zagraniczne 2 06-28-2013 12:10
Dokument - Freddie Mercury - wielki mistyfikator / Freddie Mercury: The Great Pretender (2012) Sagittario Filmy zagraniczne 0 05-22-2013 09:07
Oz Wielki i Potężny (2013) Sweetheart Filmy 2 03-06-2013 21:33
Wielki Gatsby 3D (2013) Sweetheart Filmy 0 02-07-2013 19:07
Dramat - The Great Magician (2011) Sagittario Filmy zagraniczne 0 11-23-2012 17:23


Czasy w strefie GMT +1. Teraz jest 14:37.

Na górę Na górę



Powered by vBulletin® Version 3.8.6
Copyright ©2000 - 2018, Jelsoft Enterprises Ltd.


Rozdajemy ebooki | Filmy online