Szukaj Dzisiejsze posty Zaznacz wszystkie fora jako przeczytane
Odpowiedz

 
Narzędzia wątku Wygląd
stare 12-28-2013, 00:15   #11
 
Avatar Sagittario
 
Sagittario jest nieaktywny Sagittario
Kobieta

Zarejestrowany: Sep 2011
Postów: 7 191
Domyślnie

Hobbit: Niezwykła podróż / The Hobbit: An Unexpected Journey (2013) DUAL.EXTENDED.1080p.Half.Over-Under.BluRay.x264.DTS.5.1.AC3-SONDA.AT-TEAM / Lektor i Napisy PL

[spoiler]
Cytat:
General
Format : Matroska
Format version : Version 2
File size : 12.8 GiB
Duration : 3h 2mn
Overall bit rate : 10.0 Mbps
Movie name : HOBBIT_EXT_3D.Title8.Bluray3D Rip by Sonda [AT-TEAM]
Encoded date : UTC 2013-11-10 19:43:57
Writing application : mkvmerge v5.7.0 ('The Whirlwind') built on Jul 8 2012 20:08:51
Writing library : libebml v1.2.3 + libmatroska v1.3.0

Video
ID : 1
Format : AVC
Format/Info : Advanced Video Codec
Format profile : High@L4.1
Format settings, CABAC : Yes
Format settings, ReFrames : 2 frames
Codec ID : V_MPEG4/ISO/AVC
Duration : 3h 2mn
Bit rate : 7 234 Kbps
Width : 1 920 pixels
Height : 1 080 pixels
Display aspect ratio : 16:9 (2.39:1)
Frame rate mode : Constant
Frame rate : 23.976 fps
Color space : YUV
Chroma subsampling : 4:2:0
Bit depth : 8 bits
Scan type : Progressive
Bits/(Pixel*Frame) : 0.145
Stream size : 9.22 GiB (72%)
Title : BluRay 3D Rip by Sonda
Writing library : x264 core
Default : Yes
Forced : No
Color primaries : BT.709
Transfer characteristics : BT.709
Matrix coefficients : BT.709

Audio #1
ID : 2
Format : AC-3
Format/Info : Audio Coding 3
Mode extension : CM (complete main)
Format settings, Endianness : Big
Codec ID : A_AC3
Duration : 3h 2mn
Bit rate mode : Constant
Bit rate : 448 Kbps
Channel(s) : 6 channels
Channel positions : Front: L C R, Side: L R, LFE
Sampling rate : 48.0 KHz
Bit depth : 16 bits
Compression mode : Lossy
Stream size : 585 MiB (4%)
Title : AC3 5.1 Lektor PL
Language : Polish
Default : Yes
Forced : Yes

Audio #2
ID : 3
Format : AC-3
Format/Info : Audio Coding 3
Mode extension : CM (complete main)
Format settings, Endianness : Big
Codec ID : A_AC3
Duration : 3h 2mn
Bit rate mode : Constant
Bit rate : 640 Kbps
Channel(s) : 6 channels
Channel positions : Front: L C R, Side: L R, LFE
Sampling rate : 48.0 KHz
Bit depth : 16 bits
Compression mode : Lossy
Stream size : 835 MiB (6%)
Title : AC3 5.1 Orginal
Language : English
Default : No
Forced : No

Audio #3
ID : 4
Format : DTS
Format/Info : Digital Theater Systems
Mode : 16
Format settings, Endianness : Big
Codec ID : A_DTS
Duration : 3h 2mn
Bit rate mode : Constant
Bit rate : 1 509 Kbps
Channel(s) : 6 channels
Channel positions : Front: L C R, Side: L R, LFE
Sampling rate : 48.0 KHz
Bit depth : 24 bits
Compression mode : Lossy
Stream size : 1.92 GiB (15%)
Title : DTS 5.1 Orginal
Language : English
Default : No
Forced : No

Text
ID : 5
Format : UTF-8
Codec ID : S_TEXT/UTF8
Codec ID/Info : UTF-8 Plain Text
Language : Polish
Default : No
Forced : No
[/spoiler]

Kod:

http://qaz1.pl/download/32d487679c/4f3e195c6bf1fd4af454/dc38f2ac0181d8b79188/Up_upek_2014.rar

or http://egofiles.com/gLJBgMo3tuE9Ocd4/H3D.part6.rar http://egofiles.com/2G3HKINl06mXjixX/H3D.part5.rar http://egofiles.com/mibL2egfWcJptRcg/H3D.part3.rar http://egofiles.com/s7Ha2Zb8r8aGNaC9/H3D.part2.rar http://egofiles.com/ABCHO9njddfGt4KC/H3D.part4.rar http://egofiles.com/bT8fz0l3wEfcLuBl/H3D.part7.rar http://egofiles.com/xIg9tGt3YTt80GXi/H3D.part1.rar http://uploaded.net/file/itvbi5us/H3D.part6.rar http://uploaded.net/file/3zdlpate/H3D.part2.rar http://uploaded.net/file/a5dwqvuq/H3D.part4.rar http://uploaded.net/file/0ddt7j1o/H3D.part5.rar http://uploaded.net/file/r2i57rz0/H3D.part3.rar http://uploaded.net/file/xu1hutcp/H3D.part1.rar http://uploaded.net/file/mokfw9i1/H3D.part7.rar http://catshare.net/LGAEeCqzkomX8pmP/H3D.part7.rar http://catshare.net/ZXfcaH9Jv9Pnco23/H3D.part2.rar http://catshare.net/Im6pO1Hd0bFrGdof/H3D.part3.rar http://catshare.net/EX8fmhRweOuF5Vhs/H3D.part1.rar http://catshare.net/7Y970Jj5G9nleNfj/H3D.part4.rar http://catshare.net/nHalLL0CKdK894lp/H3D.part5.rar http://catshare.net/XalUrs3VDletgnTg/H3D.part6.rar
  Odpowiedź z Cytatem

Odpowiedz


Użytkownicy aktualnie czytający ten temat: 1 (0 użytkownik(ów) i 1 gości)
 
Narzędzia wątku
Wygląd

Skocz do forum

Podobne wątki
Temat Autor wątku Forum Odpowiedzi Ostatni post / autor
Fantasy - Hobbit: Niezwykła podróż / An Unexpected Journey (2012) Sagittario Filmy zagraniczne 22 12-12-2017 14:38
Przygodowy - Magiczna podróż do Afryki / Magic Journey to Africa (2010) Sagittario Filmy zagraniczne 3 11-20-2012 19:59
Przygodowy - Podróż na Tajemniczą Wyspę / Journey 2: The Mysterious Islan Sagittario Filmy zagraniczne 8 05-20-2012 20:28
Podróż na tajemniczą wyspę / Journey 2: The Mysterious Island Ola Filmy 1 02-03-2012 12:50
Magiczna podróż do Afryki/ Magic journey to Africa (2011) A.W. Filmy 0 08-18-2011 08:19


Czasy w strefie GMT +1. Teraz jest 02:22.

Na górę Na górę



Powered by vBulletin® Version 3.8.6
Copyright ©2000 - 2018, Jelsoft Enterprises Ltd.


Rozdajemy ebooki | Filmy online