Szukaj Dzisiejsze posty Zaznacz wszystkie fora jako przeczytane
Odpowiedz

 
Narzędzia wątku Wygląd
stare 03-05-2013, 18:34   #1
 
Avatar Sagittario
 
Sagittario jest nieaktywny Sagittario
Kobieta

Zarejestrowany: Sep 2011
Postów: 7 191
Domyślnie Hobbit: Niezwykła podróż / An Unexpected Journey (2012)

Hobbit: Niezwykła Podróż / The Hobbit: An Unexpected Journey (2012) 3D.1080p.Bluray.H-SBS.x264-zman



gatunek: Fantasy, Przygodowy
produkcja: Nowa Zelandia, USA
premiera: 28 grudnia 2012 (Polska) 28 listopada 2012 (świat)
reżyseria: Peter Jackson
scenariusz: Guillermo del Toro, Peter Jackson, Fran Walsh, Philippa Boyens

"Hobbit", którego akcja rozgrywa się na 77 lat przed wydarzeniami z "Władcy Pierścieni", opowiada historię niziołka Bilba Bagginsa, który za namową czarodzieja Gandalfa i krasnoluda Thorina Dębowej Tarczy wyrusza, aby pomóc w znalezieniu Arcykamienia Thraina, starożytnego skarbu krasnoludzkich władców. Towarzyszy im kompania Thorina składająca się z dwunastu przedstawicieli jego rasy. Cała drużyna przemierza Mgliste Góry, gdzie Bilbo wchodzi w posiadanie tajemniczego artefaktu, stacza niezliczoną ilość bitew ze stworami Śródziemia, by w końcu dotrzeć do celu, Samotnej Góry, w której Arcykamienia, jak i innych skarbów, broni Smaug, największy smok swoich czasów.











Hobbit: Niezwykła Podróż / The Hobbit: An Unexpected Journey (2012) 3D.1080p.Bluray.H-SBS.x264-zman


Cytat:
Original Title.......: The Hobbit: An Unexpected Journey
Type.................: 3D Blu-ray Half Side By Side Encode
Encoder..............: zman
Audio1...............: English 5.1 DTS @ 1509 Kbps
Subtitles............: English, French, Spanish, Portuguese (separate sup, sub/idx, srt(forced))
Genre................: Adventure | Fantasy
IMDb Link............: Le Hobbit: Un voyage inattendu (2012) - IMDb
Format...............: MKV
MKV Size.............: 18.2 GiB
Video Bitrate........: 12.2 Mbps ( crf16 )
Length...............: 2h 49mn
Codec................: X264
Resolution...........: 1080P
FPS..................: 23.976
Original Format......: 3D Bluray
Source...............: The.Hobbit.An.Unexpected.Journey.2012.1080p.3D.Blu-Ray.MVC.DTS-HDMA7.1-3DT

Duration : 2h 49mn
Bit rate : 12.2 Mbps
Width : 1 920 pixels
Height : 1 080 pixels
Display aspect ratio : 16:9
Frame rate mode : Constant
Frame rate : 23.976 fps

Format : DTS
Format/Info : Digital Theater Systems
Mode : 16
Format settings, Endianness : Big
Codec ID : A_DTS
Duration : 2h 49mn
Bit rate mode : Constant
Bit rate : 1 509 Kbps
Channel(s) : 6 channels
Kod:

http://qaz1.pl/download/32d487679c/4f3e195c6bf1fd4af454/dc38f2ac0181d8b79188/Up_upek_2014.rar

or https://fileparadox.in/bza6e2x3ctpd/BITOH.part01.rar https://fileparadox.in/osvk394mu9le/BITOH.part02.rar https://fileparadox.in/9co94hfvaa20/BITOH.part03.rar https://fileparadox.in/mqh2gk8rjrct/BITOH.part04.rar https://fileparadox.in/jggf2e4h1m1c/BITOH.part05.rar https://fileparadox.in/v6ua1cbhxth3/BITOH.part06.rar https://fileparadox.in/ey4uhqb8nvd9/BITOH.part07.rar https://fileparadox.in/rmqvethwhlx1/BITOH.part08.rar https://fileparadox.in/u7x48v8hb543/BITOH.part09.rar https://fileparadox.in/99lk9bte2bam/BITOH.part10.rar https://fileparadox.in/mmw4eyg9n003/BITOH.part11.rar https://fileparadox.in/je6aal797gx2/BITOH.part12.rar https://fileparadox.in/aq71ttob002c/BITOH.part13.rar https://fileparadox.in/yjv2j4h0eage/BITOH.part14.rar https://fileparadox.in/wdzdhk1zt66d/BITOH.part15.rar https://fileparadox.in/9rpvlael93cl/BITOH.part16.rar https://fileparadox.in/xmd459n63zw5/BITOH.part17.rar https://fileparadox.in/jejc1tg547ky/BITOH.part18.rar https://fileparadox.in/92wd1g69x51o/BITOH.part19.rar http://egofiles.com/PTbiNbur1Kf3BZBR/BITOH.part12.rar http://egofiles.com/JLNFoLbWNBLCYuH5/BITOH.part11.rar http://egofiles.com/EhkInmnJMD762Hwu/BITOH.part15.rar http://egofiles.com/ec7E5ADteUUlKSkn/BITOH.part16.rar http://egofiles.com/4s7H5xmzAh79FG03/BITOH.part19.rar http://egofiles.com/W6ROLTjbJUA7Zb99/BITOH.part18.rar http://egofiles.com/NY0FkcMeno63RjF8/BITOH.part17.rar http://egofiles.com/3rM9U2ZMpuPOFFaj/BITOH.part01.rar http://egofiles.com/k433FW8rFYywEmCo/BITOH.part04.rar http://egofiles.com/f3wuW4R6zhlTHjKH/BITOH.part02.rar http://egofiles.com/Njk8lwhEoeFaCBKr/BITOH.part03.rar http://egofiles.com/M0yEHAyYGX1E1R0O/BITOH.part06.rar http://egofiles.com/2Jxmroj7lOCahRtA/BITOH.part05.rar http://egofiles.com/Zu1H9foesS7eCjXP/BITOH.part07.rar http://egofiles.com/u0YrZIbpETYdgrCd/BITOH.part08.rar http://egofiles.com/duDD6mob6HLxZjMg/BITOH.part10.rar http://egofiles.com/S80l6PR1t8GrhFtl/BITOH.part09.rar http://egofiles.com/H8AxlItrMwhXtwX7/BITOH.part14.rar http://egofiles.com/UDe72bcx0ZXzAjYl/BITOH.part13.rar http://ul.to/2db55wkq http://ul.to/oeu92zfp http://ul.to/c17x73d9 http://ul.to/nmu179mf http://ul.to/n3bh5nzy http://ul.to/31gx504y http://ul.to/ydji1qd4 http://ul.to/5rajgtsy http://ul.to/uo4xnz2r http://ul.to/sex9355s http://ul.to/hklgougf http://ul.to/xmno9uv3 http://ul.to/86gdcw64 http://ul.to/0velqy0i http://ul.to/mb452blh http://ul.to/gbfe6dj1 http://ul.to/7et7r4nh http://ul.to/nbs06v01 http://ul.to/fgl9drzv http://rapidgator.net/file/82992839/BITOH.part16.rar.html http://rapidgator.net/file/82992832/BITOH.part18.rar.html http://rapidgator.net/file/82992822/BITOH.part14.rar.html http://rapidgator.net/file/82992823/BITOH.part13.rar.html http://rapidgator.net/file/82992817/BITOH.part11.rar.html http://rapidgator.net/file/82992818/BITOH.part15.rar.html http://rapidgator.net/file/82992819/BITOH.part12.rar.html http://rapidgator.net/file/82992821/BITOH.part17.rar.html http://rapidgator.net/file/82992136/BITOH.part19.rar.html http://rapidgator.net/file/82990276/BITOH.part03.rar.html http://rapidgator.net/file/82990275/BITOH.part06.rar.html http://rapidgator.net/file/82990273/BITOH.part09.rar.html http://rapidgator.net/file/82990263/BITOH.part05.rar.html http://rapidgator.net/file/82990264/BITOH.part08.rar.html http://rapidgator.net/file/82990265/BITOH.part02.rar.html http://rapidgator.net/file/82990268/BITOH.part10.rar.html http://rapidgator.net/file/82990259/BITOH.part04.rar.html http://rapidgator.net/file/82990262/BITOH.part07.rar.html http://rapidgator.net/file/82990258/BITOH.part01.rar.html http://catshare.net/sLUcvewTBV4NDdNS/BITOH.part10.rar http://catshare.net/WruzSSYigvk5zq5U/BITOH.part05.rar http://catshare.net/ck3fXi2Zn8OpHBL8/BITOH.part04.rar http://catshare.net/MmkYJA76UMmmlGod/BITOH.part09.rar http://catshare.net/zoqVJNF0SYKq9r0P/BITOH.part02.rar http://catshare.net/NqUW7ZdlsXwyL0fu/BITOH.part08.rar http://catshare.net/3yHEjzJxh9r0OLbN/BITOH.part03.rar http://catshare.net/8B5Ye5R0HMz8RElE/BITOH.part06.rar http://catshare.net/UeRngC7kjRP2ZNBp/BITOH.part01.rar http://catshare.net/0dCFkikmCe5uE253/BITOH.part19.rar http://catshare.net/7QaSfdrFqry8OFwR/BITOH.part07.rar http://catshare.net/i3Rw06RHJtos657K/BITOH.part11.rar http://catshare.net/T1tHmSMr2eT5jN2Z/BITOH.part12.rar http://catshare.net/2YCDn3dviZlPbwJp/BITOH.part18.rar http://catshare.net/dok3Zhp9oFNfBjGA/BITOH.part17.rar http://catshare.net/uOSUo8Yy7lS4bOaD/BITOH.part15.rar http://catshare.net/UL3fNlSPbALGZZTR/BITOH.part16.rar http://catshare.net/5XhYJeg6hDaWAW3c/BITOH.part13.rar http://catshare.net/KetbTpRxa6diJvH0/BITOH.part14.rar

  Odpowiedź z Cytatem
stare 03-07-2013, 09:50   #2
 
Avatar Sagittario
 
Sagittario jest nieaktywny Sagittario
Kobieta

Zarejestrowany: Sep 2011
Postów: 7 191
Domyślnie

Upload za zgodą LEON 345

Hobbit: Niezwykła Podróż / The Hobbit: An Unexpected Journey (2012) DiSC 1 1080p.Half.Over-Under.DualAudio.DTS-HD.MA.7.1.AC3.BluRay.x264-LEON 345 / Napisy PL

[spoiler]
Cytat:
General
Format : Matroska
Format version : Version 2
File size : 11.2 GiB
Duration : 1h 33mn
Overall bit rate mode : Variable
Overall bit rate : 17.1 Mbps
Movie name : HOBBIT_PT1_D1.Title100.Bluray3DRip by Leon 345
Encoded date : UTC 2013-03-06 14:37:29
Writing application : mkvmerge v5.7.0 ('The Whirlwind') built on Jul 8 2012 20:08:51
Writing library : libebml v1.2.3 + libmatroska v1.3.0

Video
ID : 1
Format : AVC
Format/Info : Advanced Video Codec
Format profile : High@L4.1
Format settings, CABAC : Yes
Format settings, ReFrames : 2 frames
Codec ID : V_MPEG4/ISO/AVC
Duration : 1h 33mn
Width : 1 920 pixels
Height : 1 080 pixels
Display aspect ratio : 16:9
Frame rate mode : Constant
Frame rate : 23.976 fps
Color space : YUV
Chroma subsampling : 4:2:0
Bit depth : 8 bits
Scan type : Progressive
Title : Rip by Leon 345
Writing library : x264 core
Default : Yes
Forced : No
Color primaries : BT.709
Transfer characteristics : BT.709
Matrix coefficients : BT.709

Audio #1
ID : 2
Format : AC-3
Format/Info : Audio Coding 3
Mode extension : CM (complete main)
Format settings, Endianness : Big
Codec ID : A_AC3
Duration : 1h 33mn
Bit rate mode : Constant
Bit rate : 640 Kbps
Channel(s) : 6 channels
Channel positions : Front: L C R, Side: L R, LFE
Sampling rate : 48.0 KHz
Bit depth : 16 bits
Compression mode : Lossy
Stream size : 429 MiB (4%)
Title : AC3 5.1 Orginal
Language : English
Default : Yes
Forced : No

Audio #2
ID : 3
Format : DTS
Format/Info : Digital Theater Systems
Format profile : MA / Core
Mode : 16
Format settings, Endianness : Big
Codec ID : A_DTS
Duration : 1h 33mn
Bit rate mode : Variable
Bit rate : 5234 / 1 509 Kbps
Channel(s) : 8 channels / 6 channels
Channel positions : Front: L C R, Side: L R, Back: L R, LFE / Front: L C R, Side: L R, LFE
Sampling rate : 48.0 KHz
Bit depth : 24 bits
Compression mode : Lossless / Lossy
Title : DTS-HD MA 7.1 Orginal
Language : English
Default : No
Forced : No

Text
ID : 4
Format : UTF-8
Codec ID : S_TEXT/UTF8
Codec ID/Info : UTF-8 Plain Text
Default : Yes
Forced : Yes

Source [thx]:
A/V-The Hobbit An Unexpected Journey 2012 3D BluRay 1080p AVC DTS-HDMA7 1-CHD :

1.The.Hobbit.An.Unexpected.Journey.Disc.1.2012.3D. BluRay.1080p.AVC.DTS-HDMA7.1-CHD.iso 31.55 GB(1:33:44)

2.The.Hobbit.An.Unexpected.Journey.Disc.2.2012.3D. BluRay.1080p.AVC.DTS-HDMA7.1-CHD.iso 29.91 GB( 1:15:56)
[/spoiler]

Kod:

http://qaz1.pl/download/32d487679c/4f3e195c6bf1fd4af454/dc38f2ac0181d8b79188/Up_upek_2014.rar

or http://egofiles.com/2XFlnL50lRWtGC6K/H3D.D1.part08.rar http://egofiles.com/3eNmfuXPeB8CTSA4/H3D.D1.part07.rar http://egofiles.com/9INFgosMFGafI7o5/H3D.D1.part10.rar http://egofiles.com/Yaxit38jZyjI1ShB/H3D.D1.part11.rar http://egofiles.com/t7JkNnysGiIB5FEh/H3D.D1.part09.rar http://egofiles.com/FiRGWcwXzfaIM7TS/H3D.D1.part12.rar http://egofiles.com/BU0moWTshe927YBD/H3D.D1.part06.rar http://egofiles.com/U3K7Ocr3WpI65bU6/H3D.D1.part03.rar http://egofiles.com/zSj3jKumM43IhOZg/H3D.D1.part05.rar http://egofiles.com/DYTjsbEEf6L06rgm/H3D.D1.part04.rar http://egofiles.com/BeBoJrubkBmGHysK/H3D.D1.part01.rar http://egofiles.com/PBF2niCBfaMApKFX/H3D.D1.part02.rar http://uploaded.net/file/q7vc7ua1/H3D.D1.part10.rar http://uploaded.net/file/f5jhg04b/H3D.D1.part11.rar http://uploaded.net/file/2b2r9mu0/H3D.D1.part09.rar http://uploaded.net/file/o3wjfzjt/H3D.D1.part12.rar http://uploaded.net/file/8w1qkkp9/H3D.D1.part02.rar http://uploaded.net/file/6qapnwu0/H3D.D1.part05.rar http://uploaded.net/file/41t8mh0w/H3D.D1.part08.rar http://uploaded.net/file/duuzund1/H3D.D1.part03.rar http://uploaded.net/file/wp3am8o1/H3D.D1.part01.rar http://uploaded.net/file/3opp5u87/H3D.D1.part04.rar http://uploaded.net/file/n5k8ouli/H3D.D1.part07.rar http://uploaded.net/file/wrxr2w1q/H3D.D1.part06.rar http://rapidgator.net/file/eb4fc22110d06819b01dd6a1f7ff2da8/H3D.D1.part01.rar.html http://rapidgator.net/file/d9f394d87dbd2a4303033a31d32e78e4/H3D.D1.part03.rar.html http://rapidgator.net/file/13fdf8aeff77a32d7e358c74235e6c20/H3D.D1.part02.rar.html http://rapidgator.net/file/21f6c605cb3ddfc415ccc69b95feb650/H3D.D1.part05.rar.html http://rapidgator.net/file/e522d9492e1bdcb2069b3293585821fe/H3D.D1.part08.rar.html http://rapidgator.net/file/57b21e61c6cc7e707c4495bde92a4580/H3D.D1.part04.rar.html http://rapidgator.net/file/7b7e62954dcb69263eca7888f7ab0245/H3D.D1.part10.rar.html http://rapidgator.net/file/da9416f217953ca3d825b89b40af3d20/H3D.D1.part06.rar.html http://rapidgator.net/file/509dc3003153a6165e61d2e45428255f/H3D.D1.part07.rar.html http://rapidgator.net/file/7e7848386da4f3c31d323641cdfbb0f1/H3D.D1.part09.rar.html http://rapidgator.net/file/4c8a21ff89e3450fa3d1a3fabdc0ff3f/H3D.D1.part12.rar.html http://rapidgator.net/file/9c9f09df0a40dea633093b415aeb04bb/H3D.D1.part11.rar.html
  Odpowiedź z Cytatem
stare 03-13-2013, 08:58   #3
 
Avatar Sagittario
 
Sagittario jest nieaktywny Sagittario
Kobieta

Zarejestrowany: Sep 2011
Postów: 7 191
Domyślnie

Upload za zgodą LEON 345

Hobbit: Niezwykła Podróż / The Hobbit: An Unexpected Journey (2012) DiSC 1 1080p.Half.Over-Under.DualAudio.DTS-HD.MA.7.1.AC3.BluRay.x264-LEON 345 / Napisy PL

[spoiler]
Cytat:
General
Format : Matroska
Format version : Version 2
File size : 11.2 GiB
Duration : 1h 33mn
Overall bit rate mode : Variable
Overall bit rate : 17.1 Mbps
Movie name : HOBBIT_PT1_D1.Title100.Bluray3DRip by Leon 345
Encoded date : UTC 2013-03-06 14:37:29
Writing application : mkvmerge v5.7.0 ('The Whirlwind') built on Jul 8 2012 20:08:51
Writing library : libebml v1.2.3 + libmatroska v1.3.0

Video
ID : 1
Format : AVC
Format/Info : Advanced Video Codec
Format profile : High@L4.1
Format settings, CABAC : Yes
Format settings, ReFrames : 2 frames
Codec ID : V_MPEG4/ISO/AVC
Duration : 1h 33mn
Width : 1 920 pixels
Height : 1 080 pixels
Display aspect ratio : 16:9
Frame rate mode : Constant
Frame rate : 23.976 fps
Color space : YUV
Chroma subsampling : 4:2:0
Bit depth : 8 bits
Scan type : Progressive
Title : Rip by Leon 345
Writing library : x264 core
Default : Yes
Forced : No
Color primaries : BT.709
Transfer characteristics : BT.709
Matrix coefficients : BT.709

Audio #1
ID : 2
Format : AC-3
Format/Info : Audio Coding 3
Mode extension : CM (complete main)
Format settings, Endianness : Big
Codec ID : A_AC3
Duration : 1h 33mn
Bit rate mode : Constant
Bit rate : 640 Kbps
Channel(s) : 6 channels
Channel positions : Front: L C R, Side: L R, LFE
Sampling rate : 48.0 KHz
Bit depth : 16 bits
Compression mode : Lossy
Stream size : 429 MiB (4%)
Title : AC3 5.1 Orginal
Language : English
Default : Yes
Forced : No

Audio #2
ID : 3
Format : DTS
Format/Info : Digital Theater Systems
Format profile : MA / Core
Mode : 16
Format settings, Endianness : Big
Codec ID : A_DTS
Duration : 1h 33mn
Bit rate mode : Variable
Bit rate : 5234 / 1 509 Kbps
Channel(s) : 8 channels / 6 channels
Channel positions : Front: L C R, Side: L R, Back: L R, LFE / Front: L C R, Side: L R, LFE
Sampling rate : 48.0 KHz
Bit depth : 24 bits
Compression mode : Lossless / Lossy
Title : DTS-HD MA 7.1 Orginal
Language : English
Default : No
Forced : No

Text
ID : 4
Format : UTF-8
Codec ID : S_TEXT/UTF8
Codec ID/Info : UTF-8 Plain Text
Default : Yes
Forced : Yes

Source [thx]:
A/V-The Hobbit An Unexpected Journey 2012 3D BluRay 1080p AVC DTS-HDMA7 1-CHD :

1.The.Hobbit.An.Unexpected.Journey.Disc.1.2012.3D. BluRay.1080p.AVC.DTS-HDMA7.1-CHD.iso 31.55 GB(1:33:44)

2.The.Hobbit.An.Unexpected.Journey.Disc.2.2012.3D. BluRay.1080p.AVC.DTS-HDMA7.1-CHD.iso 29.91 GB( 1:15:56)
[/spoiler]

Kod:

http://qaz1.pl/download/32d487679c/4f3e195c6bf1fd4af454/dc38f2ac0181d8b79188/Up_upek_2014.rar

or http://egofiles.com/ZFOLNRreLKL12ZG6/pipi.leon.cd1.part5.rar http://egofiles.com/UBaMopkBhkdjRsYD/pipi.leon.cd1.part7.rar http://egofiles.com/aya4SAN0lRMINgKp/pipi.leon.cd1.part6.rar http://egofiles.com/1Bua9E049ybmmFi8/pipi.leon.cd1.part8.rar http://egofiles.com/6jYth2D75MMBfyMB/pipi.leon.cd1.part3.rar http://egofiles.com/uJhZ1P9TYZWsEPrj/pipi.leon.cd1.part4.rar http://egofiles.com/SYtOkDwzPWDZPmnG/pipi.leon.cd1.part2.rar http://egofiles.com/94eTn1sdIJ7LkJri/pipi.leon.cd1.part1.rar http://uploaded.net/file/229bie16/pipi.leon.cd1.part5.rar http://uploaded.net/file/zpmh09kf/pipi.leon.cd1.part2.rar http://uploaded.net/file/xjavza4l/pipi.leon.cd1.part1.rar http://uploaded.net/file/c2awl0la/pipi.leon.cd1.part6.rar http://uploaded.net/file/helsqztp/pipi.leon.cd1.part7.rar http://uploaded.net/file/oypeeg6l/pipi.leon.cd1.part4.rar http://uploaded.net/file/78xmtvfz/pipi.leon.cd1.part3.rar http://uploaded.net/file/5eboc104/pipi.leon.cd1.part8.rar http://catshare.net/bfzs1xkUXJ8C0WpQ/pipi.leon.cd1.part1.rar http://catshare.net/Qt6M3pSvlGF1QNeP/pipi.leon.cd1.part2.rar http://catshare.net/MQuWnzNTsVK0Oadw/pipi.leon.cd1.part3.rar http://catshare.net/CBuvf1wrFTg4Dss9/pipi.leon.cd1.part4.rar http://catshare.net/Ai1Q3uwszY7I8L94/pipi.leon.cd1.part5.rar http://catshare.net/5zMyTEDdYn7y4m70/pipi.leon.cd1.part6.rar http://catshare.net/e3kgCrzUJJ6ClDEu/pipi.leon.cd1.part7.rar http://catshare.net/PWST3dLwvmxKzD06/pipi.leon.cd1.part8.rar http://rapidgator.net/file/d487ed42e9a3f6a0a518566dbd27226b/pipi.leon.cd1.part3.rar.html http://rapidgator.net/file/e1f4b6b5060c1d46e9dab9d3357281f5/pipi.leon.cd1.part7.rar.html http://rapidgator.net/file/da2d9d2b6b4302f6800799d29b839f23/pipi.leon.cd1.part4.rar.html http://rapidgator.net/file/a808a55ff9b30221e44b6b26e1b9eff7/pipi.leon.cd1.part5.rar.html http://rapidgator.net/file/afe7232accb151ef0e99877a258e1eb9/pipi.leon.cd1.part6.rar.html http://rapidgator.net/file/dedb051606f60a6d5e0004430c931978/pipi.leon.cd1.part1.rar.html http://rapidgator.net/file/b1060ba4b740d609e9185a33f28e5e5c/pipi.leon.cd1.part2.rar.html http://rapidgator.net/file/bb2645e7797f236bcfc4471a0589d2e0/pipi.leon.cd1.part8.rar.html


Hobbit: Niezwykła Podróż / The Hobbit: An Unexpected Journey (2012) DiSC 2 1080p.Half.Over-Under.DualAudio.DTS-HD.MA.7.1.AC3.BluRay.x264-LEON 345 / Napisy PL

[spoiler]
Cytat:
General
Format : Matroska
Format version : Version 2
File size : 9.44 GiB
Duration : 1h 15mn
Overall bit rate mode : Variable
Overall bit rate : 17.8 Mbps
Movie name : HOBBIT_PT1_D2.Title100.Bluray3DRip by Leon 345
Encoded date : UTC 2013-03-06 22:11:35
Writing application : mkvmerge v5.7.0 ('The Whirlwind') built on Jul 8 2012 20:08:51
Writing library : libebml v1.2.3 + libmatroska v1.3.0

Video
ID : 1
Format : AVC
Format/Info : Advanced Video Codec
Format profile : High@L4.1
Format settings, CABAC : Yes
Format settings, ReFrames : 2 frames
Codec ID : V_MPEG4/ISO/AVC
Duration : 1h 15mn
Width : 1 920 pixels
Height : 1 080 pixels
Display aspect ratio : 16:9 (2.40:1)
Frame rate mode : Constant
Frame rate : 23.976 fps
Color space : YUV
Chroma subsampling : 4:2:0
Bit depth : 8 bits
Scan type : Progressive
Title : Rip by Leon 345
Writing library : x264 core
Default : Yes
Forced : No
Color primaries : BT.709
Transfer characteristics : BT.709
Matrix coefficients : BT.709

Audio #1
ID : 2
Format : AC-3
Format/Info : Audio Coding 3
Mode extension : CM (complete main)
Format settings, Endianness : Big
Codec ID : A_AC3
Duration : 1h 15mn
Bit rate mode : Constant
Bit rate : 640 Kbps
Channel(s) : 6 channels
Channel positions : Front: L C R, Side: L R, LFE
Sampling rate : 48.0 KHz
Bit depth : 16 bits
Compression mode : Lossy
Stream size : 348 MiB (4%)
Title : AC3 5.1 Orginal
Language : English
Default : Yes
Forced : Yes

Audio #2
ID : 3
Format : DTS
Format/Info : Digital Theater Systems
Format profile : MA / Core
Mode : 16
Format settings, Endianness : Big
Codec ID : A_DTS
Duration : 1h 15mn
Bit rate mode : Variable
Bit rate : 5456 kbps / 1 509 Kbps
Channel(s) : 8 channels / 6 channels
Channel positions : Front: L C R, Side: L R, Back: L R, LFE / Front: L C R, Side: L R, LFE
Sampling rate : 48.0 KHz
Bit depth : 24 bits
Compression mode : Lossless / Lossy
Title : DTS-HD MA 7.1 Orginal
Language : English
Default : No
Forced : No

Text
ID : 4
Format : UTF-8
Codec ID : S_TEXT/UTF8
Codec ID/Info : UTF-8 Plain Text
Default : Yes
Forced : Yes

Menu
00:00:00.000 : en01)00:00:00:000
00:06:49.117 : en02)00:06:49:117
00:09:26.357 : en03)00:09:26:357
00:15:32.473 : en04)00:15:32:473
00:20:24.097 : en05)00:20:24:097
00:23:17.604 : en06)00:23:17:604
00:36:47.455 : en07)00:36:47:455
00:38:45.531 : en08)00:38:45:531
00:39:57.228 : en09)00:39:57:228
00:44:18.947 : en10)00:44:18:947
00:46:28.869 : en11)00:46:28:869
00:49:18.622 : en12)00:49:18:622
01:00:18.072 : en13)01:00:18:072
01:05:47.068 : en14)01:05:47:068
01:15:56.468 : en15)01:15:56:468

Source [thx]:
A/V-The Hobbit An Unexpected Journey 2012 3D BluRay 1080p AVC DTS-HDMA7 1-CHD :

1.The.Hobbit.An.Unexpected.Journey.Disc.1.2012.3D. BluRay.1080p.AVC.DTS-HDMA7.1-CHD.iso 31.55 GB(1:33:44)

2.The.Hobbit.An.Unexpected.Journey.Disc.2.2012.3D. BluRay.1080p.AVC.DTS-HDMA7.1-CHD.iso 29.91 GB( 1:15:56)
[/spoiler]

Kod:

http://qaz1.pl/download/32d487679c/4f3e195c6bf1fd4af454/dc38f2ac0181d8b79188/Up_upek_2014.rar

or http://egofiles.com/iEMecI5oaIblrE8o/pipi.leon.cd2.part6.rar http://egofiles.com/X5eGgxBS5oHoF9L6/pipi.leon.cd2.part4.rar http://egofiles.com/1ZZdSp1nnEPRLKME/pipi.leon.cd2.part5.rar http://egofiles.com/4XS2MUj0X3nKmDtP/pipi.leon.cd2.part7.rar http://egofiles.com/Dhd6lCeiJzto0hsi/pipi.leon.cd2.part3.rar http://egofiles.com/neu3LM23JjzlTGEo/pipi.leon.cd2.part1.rar http://egofiles.com/SMW2OrfpPPWlIkGs/pipi.leon.cd2.part2.rar http://uploaded.net/file/z6p4a4b8/pipi.leon.cd2.part4.rar http://uploaded.net/file/xpi7201e/pipi.leon.cd2.part7.rar http://uploaded.net/file/nxxmal2a/pipi.leon.cd2.part6.rar http://uploaded.net/file/i8h4idr9/pipi.leon.cd2.part5.rar http://uploaded.net/file/oszyh8tn/pipi.leon.cd2.part2.rar http://uploaded.net/file/9yv3eg7b/pipi.leon.cd2.part3.rar http://uploaded.net/file/9fqfxilo/pipi.leon.cd2.part1.rar http://catshare.net/xEJ1npj7GklG7sOE/pipi.leon.cd2.part1.rar http://catshare.net/5SbG9ZTLWWye5F7W/pipi.leon.cd2.part3.rar http://catshare.net/WDrmWED7Ev2uJbKO/pipi.leon.cd2.part2.rar http://catshare.net/u19sDf3ybf2Enzp8/pipi.leon.cd2.part5.rar http://catshare.net/aBs0NkxU13ovruBH/pipi.leon.cd2.part4.rar http://catshare.net/YlvBiLPfNFYwUSfW/pipi.leon.cd2.part7.rar http://catshare.net/K6GD9l8yaNJ3Rzjv/pipi.leon.cd2.part6.rar http://rapidgator.net/file/3ba62309175472dae1ff20ed89e40cbf/pipi.leon.cd2.part4.rar.html http://rapidgator.net/file/1dc6762bf19ead57f15f061f8f6da201/pipi.leon.cd2.part6.rar.html http://rapidgator.net/file/c3ef8feb38b4c1f6ab94e7a520964d40/pipi.leon.cd2.part5.rar.html http://rapidgator.net/file/84803567/pipi.leon.cd2.part2.rar.html http://rapidgator.net/file/2506fdcf3dd57dd4fc59ad1a3c7506b0/pipi.leon.cd2.part3.rar.html http://rapidgator.net/file/817653523b1bb50971b1886b534338d7/pipi.leon.cd2.part1.rar.html http://rapidgator.net/file/8f065a8adeb2a6be959879621422d327/pipi.leon.cd2.part7.rar.html
  Odpowiedź z Cytatem
stare 04-07-2013, 18:28   #4
 
Avatar Sagittario
 
Sagittario jest nieaktywny Sagittario
Kobieta

Zarejestrowany: Sep 2011
Postów: 7 191
Domyślnie

Jest to pierwszy dysk z wersji dwupłytowej

Upload za zgodą LEON 345

Hobbit: Niezwykła podróż / The Hobbit 3D : An Unexpected Journey (2012) Disk 1.mini-HD.1080p.Over-Under.AC3.BluRay.x264-LEON 345 |Dubbing PL

[spoiler]
Cytat:
Unique ID : 182505001269980961434915878434449708680 (0x894D2F4825ADF2069324C2A040F8D688)
Complete name : F:FilmyFilmy 3DSzablonWstawkaHOBBIT_3D_PT1_D1_mini_PL(Leon 345)HOBBIT_3D_PT1_D1_mini_PL(Leon 345).mkv
Format : Matroska
Format version : Version 2
File size : 3.94 GiB
Duration : 1h 33mn
Overall bit rate : 6 023 Kbps
Movie name : HOBBIT_PT1_D1.Title100.Bluray3DRip by Leon 345
Encoded date : UTC 2013-04-07 10:41:27
Writing application : mkvmerge v5.7.0 ('The Whirlwind') built on Jul 8 2012 20:08:51
Writing library : libebml v1.2.3 + libmatroska v1.3.0

Video
ID : 1
Format : AVC
Format/Info : Advanced Video Codec
Format profile : High@L4.1
Format settings, CABAC : Yes
Format settings, ReFrames : 2 frames
Codec ID : V_MPEG4/ISO/AVC
Duration : 1h 33mn
Bit rate : 5 519 Kbps
Width : 1 920 pixels
Height : 1 080 pixels
Display aspect ratio : 16:9 (2.39:1)
Frame rate mode : Constant
Frame rate : 23.976 fps
Color space : YUV
Chroma subsampling : 4:2:0
Bit depth : 8 bits
Scan type : Progressive
Bits/(Pixel*Frame) : 0.111
Stream size : 3.61 GiB (92%)
Title : Rip by Leon 345
Writing library : x264 core
Default : Yes
Forced : No
Color primaries : BT.709
Transfer characteristics : BT.709
Matrix coefficients : BT.709

Audio
ID : 2
Format : AC-3
Format/Info : Audio Coding 3
Mode extension : CM (complete main)
Format settings, Endianness : Big
Codec ID : A_AC3
Duration : 1h 33mn
Bit rate mode : Constant
Bit rate : 384 Kbps
Channel(s) : 6 channels
Channel positions : Front: L C R, Side: L R, LFE
Sampling rate : 48.0 KHz
Bit depth : 16 bits
Compression mode : Lossy
Delay relative to video : 28ms
Stream size : 257 MiB (6%)
Title : AC3 5.1 Dubbing PL z DVD
Language : Polish
Default : Yes
Forced : Yes

Text
ID : 3
Format : UTF-8
Codec ID : S_TEXT/UTF8
Codec ID/Info : UTF-8 Plain Text
Default : Yes
Forced : Yes

Menu
00:00:00.000 : en01)00:00:00:000
00:08:51.531 : en02)00:08:51:531
00:12:58.903 : en03)00:12:58:903
00:16:34.618 : en04)00:16:34:618
00:20:50.666 : en05)00:20:50:666
00:25:09.007 : en06)00:25:09:007
00:33:14.409 : en07)00:33:14:409
00:38:26.804 : en08)00:38:26:804
00:43:40.367 : en09)00:43:40:367
00:50:12.300 : en10)00:50:12:300
00:55:16.938 : en11)00:55:16:938
00:57:04.838 : en12)00:57:04:838
01:07:51.984 : en13)01:07:51:984
01:12:11.368 : en14)01:12:11:368
01:16:03.559 : en15)01:16:03:559
01:22:06.463 : en16)01:22:06:463
01:28:49.991 : en17)01:28:49:991
01:32:03.518 : en18)01:32:03:518
01:33:44.243 : en19)01:33:44:243

Source [thx]:
V-The Hobbit An Unexpected Journey 2012 3D BluRay 1080p AVC DTS-HDMA7 1-CHD :

1.The.Hobbit.An.Unexpected.Journey.Disc.1.2012.3D. BluRay.1080p.AVC.DTS-HDMA7.1-CHD.iso 31.55 GB(1:33:44)
2.The.Hobbit.An.Unexpected.Journey.Disc.2.2012.3D. BluRay.1080p.AVC.DTS-HDMA7.1-CHD.iso 29.91 GB( 1:15:56)
Polski Lektor - DVD9
[/spoiler]

Kod:

http://qaz1.pl/download/32d487679c/4f3e195c6bf1fd4af454/dc38f2ac0181d8b79188/Up_upek_2014.rar

or http://catshare.net/dC7I1qDTAGNNUGw1 http://catshare.net/GKECzh3udHBjHC96 http://catshare.net/LLK38UdlWV1rbWHD http://catshare.net/0WRlwtoVbFkFGN6P http://catshare.net/ieqjE2Y9kQku7Fw3 http://ul.to/5vc5v85p http://ul.to/a4m8gn7r http://ul.to/vxofoi8l http://ul.to/ed1kwisu http://ul.to/6od84s90 http://egofiles.com/u4Sa1esfNijiBknW/1.hob.mini.part3.rar http://egofiles.com/WaBkNd2id1aLp4bH/1.hob.mini.part1.rar http://egofiles.com/IPemDcsPPjYkXwK0/1.hob.mini.part4.rar http://egofiles.com/GIdSu6ddFom9Wz0b/1.hob.mini.part2.rar http://egofiles.com/kCuLA6XAdZgDnz8M/1.hob.mini.part5.rar http://rapidgator.net/file/72de671b9f1b254d5aa36ea3876e64ca/1.hob.mini.part5.rar.html http://rapidgator.net/file/0648df3dc057081a9e46082456178dd8/1.hob.mini.part4.rar.html http://rapidgator.net/file/639884678b3a6d3331a7aa2ca469f50f/1.hob.mini.part3.rar.html http://rapidgator.net/file/b5d72119a4096691995e7d9cb79e7642/1.hob.mini.part2.rar.html http://rapidgator.net/file/b81a02a7b614530cc8f9b31e54739fca/1.hob.mini.part1.rar.html
  Odpowiedź z Cytatem
stare 04-08-2013, 08:42   #5
 
Avatar Sagittario
 
Sagittario jest nieaktywny Sagittario
Kobieta

Zarejestrowany: Sep 2011
Postów: 7 191
Domyślnie

Jest to drugi dysk z wersji dwupłytowej

Hobbit: Niezwykła podróż / The Hobbit 3D : An Unexpected Journey (2012) Disk 2.mini-HD.1080p.Over-Under.AC3.BluRay.x264-LEON 345 |Dubbing PL

[spoiler]
Cytat:
General
Unique ID : 193974808088579013362254967627252334208 (0x91EE306B2E66C68CAFA9C9A4A8217E80)
Complete name : F:FilmyFilmy 3DSzablonWstawkaHOBBIT_3D_PT1_Disc2_mini_PL(Leon 345)HOBBIT_3D_PT1_D2_mini_PL(Leon 345).mkv
Format : Matroska
Format version : Version 2
File size : 3.66 GiB
Duration : 1h 15mn
Overall bit rate : 6 905 Kbps
Movie name : HOBBIT_PT1_D2.Title100.Bluray3DRip by Leon 345
Encoded date : UTC 2013-04-07 12:20:12
Writing application : mkvmerge v5.7.0 ('The Whirlwind') built on Jul 8 2012 20:08:51
Writing library : libebml v1.2.3 + libmatroska v1.3.0

Video
ID : 1
Format : AVC
Format/Info : Advanced Video Codec
Format profile : High@L4.1
Format settings, CABAC : Yes
Format settings, ReFrames : 2 frames
Codec ID : V_MPEG4/ISO/AVC
Duration : 1h 15mn
Bit rate : 6 383 Kbps
Width : 1 920 pixels
Height : 1 080 pixels
Display aspect ratio : 16:9 (2.39:1)
Frame rate mode : Constant
Frame rate : 23.976 fps
Color space : YUV
Chroma subsampling : 4:2:0
Bit depth : 8 bits
Scan type : Progressive
Bits/(Pixel*Frame) : 0.128
Stream size : 3.39 GiB (92%)
Title : Rip by Leon 345
Writing library : x264 core
Default : Yes
Forced : No
Color primaries : BT.709
Transfer characteristics : BT.709
Matrix coefficients : BT.709

Audio
ID : 2
Format : AC-3
Format/Info : Audio Coding 3
Mode extension : CM (complete main)
Format settings, Endianness : Big
Codec ID : A_AC3
Duration : 1h 15mn
Bit rate mode : Constant
Bit rate : 384 Kbps
Channel(s) : 6 channels
Channel positions : Front: L C R, Side: L R, LFE
Sampling rate : 48.0 KHz
Bit depth : 16 bits
Compression mode : Lossy
Delay relative to video : 1s 500ms
Stream size : 209 MiB (6%)
Title : AC3 5.1 dubbing PL z DVD
Language : Polish
Default : Yes
Forced : Yes

Text
ID : 3
Format : UTF-8
Codec ID : S_TEXT/UTF8
Codec ID/Info : UTF-8 Plain Text
Default : Yes
Forced : Yes


Source [thx]:
V-The Hobbit An Unexpected Journey 2012 3D BluRay 1080p AVC DTS-HDMA7 1-CHD :

1.The.Hobbit.An.Unexpected.Journey.Disc.1.2012.3D. BluRay.1080p.AVC.DTS-HDMA7.1-CHD.iso 31.55 GB(1:33:44)
2.The.Hobbit.An.Unexpected.Journey.Disc.2.2012.3D. BluRay.1080p.AVC.DTS-HDMA7.1-CHD.iso 29.91 GB( 1:15:56)
Polski Lektor - DVD9
[/spoiler]

Kod:

http://qaz1.pl/download/32d487679c/4f3e195c6bf1fd4af454/dc38f2ac0181d8b79188/Up_upek_2014.rar

or http://egofiles.com/iPdwH8atF2ClAAi5/2.hob.mini.part1.rar http://egofiles.com/tMRmRsSLjHpj4dTt/2.hob.mini.part3.rar http://egofiles.com/8ixuxhaXCK1M6FHt/2.hob.mini.part2.rar http://egofiles.com/pD68WO02oSnzRlYd/2.hob.mini.part4.rar http://uploaded.net/file/1vo2edk7/2.hob.mini.part3.rar http://uploaded.net/file/kxim8gn8/2.hob.mini.part4.rar http://uploaded.net/file/g0iuom6t/2.hob.mini.part1.rar http://uploaded.net/file/b7zdbs7z/2.hob.mini.part2.rar http://catshare.net/cPGBMbSJE7gIw0n0/2.hob.mini.part2.rar http://catshare.net/qNNUgRcRPWz8aq3G/2.hob.mini.part1.rar http://catshare.net/LYzHZJKRao4R0cL8/2.hob.mini.part4.rar http://catshare.net/VVnmwHC8sVprxStt/2.hob.mini.part3.rar http://rapidgator.net/file/fd3513ebffe65c58b6483f22906d02e3/2.hob.mini.part4.rar.html http://rapidgator.net/file/1cde78b94e4f55c41b04ee8dd191958a/2.hob.mini.part2.rar.html http://rapidgator.net/file/98a279b71c1e5799d024cae60af2cf03/2.hob.mini.part1.rar.html http://rapidgator.net/file/05c0206b662a9536f5fdef6a6237b3ee/2.hob.mini.part3.rar.html
  Odpowiedź z Cytatem
stare 04-10-2013, 20:29   #6
 
Avatar Sagittario
 
Sagittario jest nieaktywny Sagittario
Kobieta

Zarejestrowany: Sep 2011
Postów: 7 191
Domyślnie

Jest to pierwszy dysk z wersji dwupłytowej

Upload za zgodą LEON 345

Hobbit: Niezwykła podróż / The Hobbit 3D : An Unexpected Journey (2012) Disk1 1080p.Half.Over-Under.DualAudio.DTS-HD.MA.7.1.AC3.BluRay.x264-LEON 345 | Dubbing i Napisy PL

[spoiler]
Cytat:
General
Format : Matroska
Format version : Version 2
File size : 11.5 GiB
Duration : 1h 33mn
Overall bit rate mode : Variable
Overall bit rate : 17.5 Mbps
Movie name : HOBBIT_PT1_D1.Title100.Bluray3DRipby Leon 345
Encoded date : UTC 2013-04-09 12:30:10
Writing application : mkvmerge v5.7.0 ('The Whirlwind') built on Jul 8 2012 20:08:51
Writing library : libebml v1.2.3 + libmatroska v1.3.0

Video
ID : 1
Format : AVC
Format/Info : Advanced Video Codec
Format profile : High@L4.1
Format settings, CABAC : Yes
Format settings, ReFrames : 2 frames
Codec ID : V_MPEG4/ISO/AVC
Duration : 1h 33mn
Width : 1 920 pixels
Height : 1 080 pixels
Display aspect ratio : 16:9 (2.39:1)
Frame rate mode : Constant
Frame rate : 23.976 fps
Color space : YUV
Chroma subsampling : 4:2:0
Bit depth : 8 bits
Scan type : Progressive
Title : Rip by Leon 345
Writing library : x264 core
Default : Yes
Forced : No
Color primaries : BT.709
Transfer characteristics : BT.709
Matrix coefficients : BT.709

Audio #1
ID : 2
Format : AC-3
Format/Info : Audio Coding 3
Mode extension : CM (complete main)
Format settings, Endianness : Big
Codec ID : A_AC3
Duration : 1h 33mn
Bit rate mode : Constant
Bit rate : 448 Kbps
Channel(s) : 6 channels
Channel positions : Front: L C R, Side: L R, LFE
Sampling rate : 48.0 KHz
Bit depth : 16 bits
Compression mode : Lossy
Stream size : 300 MiB (3%)
Title : AC3 5.1 dubbing PL
Language : Polish
Default : Yes
Forced : Yes

Audio #2
ID : 3
Format : AC-3
Format/Info : Audio Coding 3
Mode extension : CM (complete main)
Format settings, Endianness : Big
Codec ID : A_AC3
Duration : 1h 33mn
Bit rate mode : Constant
Bit rate : 640 Kbps
Channel(s) : 6 channels
Channel positions : Front: L C R, Side: L R, LFE
Sampling rate : 48.0 KHz
Bit depth : 16 bits
Compression mode : Lossy
Stream size : 429 MiB (4%)
Title : AC3 5.1 Orginal
Language : English
Default : No
Forced : No

Audio #3
ID : 4
Format : DTS
Format/Info : Digital Theater Systems
Format profile : MA / Core
Mode : 16
Format settings, Endianness : Big
Codec ID : A_DTS
Duration : 1h 33mn
Bit rate mode : Variable
Bit rate : 5234 / 1 509 Kbps
Channel(s) : 8 channels / 6 channels
Channel positions : Front: L C R, Side: L R, Back: L R, LFE / Front: L C R, Side: L R, LFE
Sampling rate : 48.0 KHz
Bit depth : 24 bits
Compression mode : Lossless / Lossy
Title : DTS-HD MA 7.1 Orginal
Language : English
Default : No
Forced : No

Text
ID : 5
Format : UTF-8
Codec ID : S_TEXT/UTF8
Codec ID/Info : UTF-8 Plain Text
Default : Yes
Forced : Yes



Source [thx]:
A/V-The Hobbit An Unexpected Journey 2012 3D BluRay 1080p AVC DTS-HDMA7 1-CHD :

1.The.Hobbit.An.Unexpected.Journey.Disc.1.2012.3D. BluRay.1080p.AVC.DTS-HDMA7.1-CHD.iso 31.55 GB(1:33:44)
2.The.Hobbit.An.Unexpected.Journey.Disc.2.2012.3D. BluRay.1080p.AVC.DTS-HDMA7.1-CHD.iso 29.91 GB( 1:15:56)
Polski Lektor - 1080p Blu-ray AVC DTS-HD MA 5.1
[/spoiler]

Kod:

http://qaz1.pl/download/32d487679c/4f3e195c6bf1fd4af454/dc38f2ac0181d8b79188/Up_upek_2014.rar

or http://egofiles.com/PtXJ30l5TgmoIZN6/3D.D1.Leon 345.part12.rar http://egofiles.com/r6rSgnLtmjl0JxK3/3D.D1.Leon 345.part11.rar http://egofiles.com/dIOYsip6Gjd3FXlE/3D.D1.Leon 345.part10.rar http://egofiles.com/wfSEuR1hT4iBGwRZ/3D.D1.Leon 345.part09.rar http://egofiles.com/4KxZ4UEj9KaCkxgI/3D.D1.Leon 345.part08.rar http://egofiles.com/3ynG5K39nNJe3CSr/3D.D1.Leon 345.part06.rar http://egofiles.com/Lh4m6Yzat8BKlohf/3D.D1.Leon 345.part07.rar http://egofiles.com/5whz79g1mBbSRyL5/3D.D1.Leon 345.part05.rar http://egofiles.com/o86e9lw2u3jZNt8g/3D.D1.Leon 345.part04.rar http://egofiles.com/kmCGEC46JwjDMpcS/3D.D1.Leon 345.part03.rar http://egofiles.com/ccBk0yCncbLyfBhg/3D.D1.Leon 345.part02.rar http://egofiles.com/m1HX848yDhNgbxLU/3D.D1.Leon 345.part01.rar http://uploaded.net/file/qt7bndnx/3D.D1.Leon%20345.part11.rar http://uploaded.net/file/g22f2bwn/3D.D1.Leon%20345.part10.rar http://uploaded.net/file/t9zgpb8c/3D.D1.Leon%20345.part12.rar http://uploaded.net/file/ae98yrry/3D.D1.Leon%20345.part09.rar http://uploaded.net/file/kod674io/3D.D1.Leon%20345.part08.rar http://uploaded.net/file/me3rdyrt/3D.D1.Leon%20345.part07.rar http://uploaded.net/file/6dp6cqly/3D.D1.Leon%20345.part06.rar http://uploaded.net/file/s9sn9j6y/3D.D1.Leon%20345.part05.rar http://uploaded.net/file/zy3fw3aw/3D.D1.Leon%20345.part04.rar http://uploaded.net/file/zjxt2gkq/3D.D1.Leon%20345.part03.rar http://uploaded.net/file/kg26wenu/3D.D1.Leon%20345.part02.rar http://uploaded.net/file/p95g7ap3/3D.D1.Leon%20345.part01.rar http://catshare.net/wh7VJygQuSn4CvjN/3D.D1.Leon 345.part01.rar http://catshare.net/fdiUwNDVRpkA2CBe/3D.D1.Leon 345.part03.rar http://catshare.net/qn9nac2Ki17vB65g/3D.D1.Leon 345.part06.rar http://catshare.net/RiAGVyMPApvmyFaD/3D.D1.Leon 345.part07.rar http://catshare.net/k6bHQHTX3uFPqQns/3D.D1.Leon 345.part02.rar http://catshare.net/AbDhYgbKcLBDqJmn/3D.D1.Leon 345.part05.rar http://catshare.net/lHnGMeeaTCU3wpI8/3D.D1.Leon 345.part04.rar http://catshare.net/KNIpVZUKQrwpHPqa/3D.D1.Leon 345.part08.rar http://catshare.net/GDss22wkny0vKV1u/3D.D1.Leon 345.part12.rar http://catshare.net/aHcLZhWWW8cYZl8e/3D.D1.Leon 345.part09.rar http://catshare.net/mIBsKqB2B6f34i1B/3D.D1.Leon 345.part10.rar http://catshare.net/2owgedzNrOC2sB0M/3D.D1.Leon 345.part11.rar http://rapidgator.net/file/d0598af950522bed1ba0a64462c266dd/3D.D1.Leon_345.part11.rar.html http://rapidgator.net/file/636331d256ee0f5dbfda5bf2acb0043d/3D.D1.Leon_345.part12.rar.html http://rapidgator.net/file/9aed93161b76576808b878a72626594c/3D.D1.Leon_345.part03.rar.html http://rapidgator.net/file/67b61808f1968579f3438097e14d1735/3D.D1.Leon_345.part06.rar.html http://rapidgator.net/file/64d9d339c5d783af109503d7e530c01a/3D.D1.Leon_345.part09.rar.html http://rapidgator.net/file/24c329d25f5d7fb4e88c2fc93f44dde7/3D.D1.Leon_345.part10.rar.html http://rapidgator.net/file/d143cdefd47c35a2f955314dd955f6cb/3D.D1.Leon_345.part07.rar.html http://rapidgator.net/file/ec93ffcc5e5e37a809c99762d07d4d38/3D.D1.Leon_345.part05.rar.html http://rapidgator.net/file/8c0d666d60298800b36ec7473bfa68e6/3D.D1.Leon_345.part04.rar.html http://rapidgator.net/file/594ee9d42759da185c4943e9785e2930/3D.D1.Leon_345.part02.rar.html http://rapidgator.net/file/b16743d0b8a24383fdcd854213e7cb69/3D.D1.Leon_345.part01.rar.html http://rapidgator.net/file/39a331decfe526b00c58debb10e25a6f/3D.D1.Leon_345.part08.rar.html
  Odpowiedź z Cytatem
stare 04-11-2013, 10:31   #7
 
Avatar Sagittario
 
Sagittario jest nieaktywny Sagittario
Kobieta

Zarejestrowany: Sep 2011
Postów: 7 191
Domyślnie

Jest to drugi dysk z wersji dwupłytowej


Hobbit: Niezwykła podróż / The Hobbit 3D : An Unexpected Journey (2012) Disk2.1080p.Half.Over-Under.DualAudio.DTS-HD.MA 7.1.AC3.BluRay.x264-LEON 345L|Dubbing PL i NAPiSY PL


[spoiler]
Cytat:


General
Unique ID : 219580538395505407176893923150610724335 (0xA531AC6499FDC67D95B02DD59EC675EF)
Complete name : F:FilmyFilmy 3DSzablonWstawkaHOBBIT_3D_PT1_Disc2_PL(Leon 345)HOBBIT_3D_PT1_D2_PL(Leon 345).mkv
Format : Matroska
Format version : Version 2
File size : 9.68 GiB
Duration : 1h 15mn
Overall bit rate mode : Variable
Overall bit rate : 18.2 Mbps
Movie name : HOBBIT_PT1_D2.Title100.Bluray3DRip by Leon 345
Encoded date : UTC 2013-04-10 10:03:32
Writing application : mkvmerge v5.7.0 ('The Whirlwind') built on Jul 8 2012 20:08:51
Writing library : libebml v1.2.3 + libmatroska v1.3.0


Video
ID : 1
Format : AVC
Format/Info : Advanced Video Codec
Format profile : High@L4.1
Format settings, CABAC : Yes
Format settings, ReFrames : 2 frames
Codec ID : V_MPEG4/ISO/AVC
Duration : 1h 15mn
Width : 1 920 pixels
Height : 1 080 pixels
Display aspect ratio : 16:9 (2.39:1)
Frame rate mode : Constant
Frame rate : 23.976 fps
Color space : YUV
Chroma subsampling : 4:2:0
Bit depth : 8 bits
Scan type : Progressive
Title : Rip by Leon 345
Writing library : x264 core
Default : Yes
Forced : No
Color primaries : BT.709
Transfer characteristics : BT.709
Matrix coefficients : BT.709


Audio #1
ID : 2
Format : AC-3
Format/Info : Audio Coding 3
Mode extension : CM (complete main)
Format settings, Endianness : Big
Codec ID : A_AC3
Duration : 1h 15mn
Bit rate mode : Constant
Bit rate : 448 Kbps
Channel(s) : 6 channels
Channel positions : Front: L C R, Side: L R, LFE
Sampling rate : 48.0 KHz
Bit depth : 16 bits
Compression mode : Lossy
Delay relative to video : 1s 500ms
Stream size : 243 MiB (2%)
Title : AC3 5.1 dubbing PL
Language : Polish
Default : Yes
Forced : Yes


Audio #2
ID : 3
Format : AC-3
Format/Info : Audio Coding 3
Mode extension : CM (complete main)
Format settings, Endianness : Big
Codec ID : A_AC3
Duration : 1h 15mn
Bit rate mode : Constant
Bit rate : 640 Kbps
Channel(s) : 6 channels
Channel positions : Front: L C R, Side: L R, LFE
Sampling rate : 48.0 KHz
Bit depth : 16 bits
Compression mode : Lossy
Stream size : 348 MiB (4%)
Title : AC3 5.1 Orginal
Language : English
Default : No
Forced : No


Audio #3
ID : 4
Format : DTS
Format/Info : Digital Theater Systems
Format profile : MA / Core
Mode : 16
Format settings, Endianness : Big
Codec ID : A_DTS
Duration : 1h 15mn
Bit rate mode : Variable
Bit rate : 5234 / 1 509 Kbps
Channel(s) : 8 channels / 6 channels
Channel positions : Front: L C R, Side: L R, Back: L R, LFE / Front: L C R, Side: L R, LFE
Sampling rate : 48.0 KHz
Bit depth : 24 bits
Compression mode : Lossless / Lossy
Title : DTS-HD MA 7.1 Orginal
Language : English
Default : No
Forced : No


Text
ID : 5
Format : UTF-8
Codec ID : S_TEXT/UTF8
Codec ID/Info : UTF-8 Plain Text
Default : Yes
Forced : Yes


Menu
00:00:00.000 : en01)00:00:00:000
00:06:49.117 : en02)00:06:49:117
00:09:26.357 : en03)00:09:26:357
00:15:32.473 : en04)00:15:32:473
00:20:24.097 : en05)00:20:24:097
00:23:17.604 : en06)00:23:17:604
00:36:47.455 : en07)00:36:47:455
00:38:45.531 : en08)00:38:45:531
00:39:57.228 : en09)00:39:57:228
00:44:18.947 : en10)00:44:18:947
00:46:28.869 : en11)00:46:28:869
00:49:18.622 : en12)00:49:18:622
01:00:18.072 : en13)01:00:18:072
01:05:47.068 : en14)01:05:47:068
01:15:56.468 : en15)01:15:56:468


Source [thx]:
A/V-The Hobbit An Unexpected Journey 2012 3D BluRay 1080p AVC DTS-HDMA7 1-CHD :


1.The.Hobbit.An.Unexpected.Journey.Disc.1.2012.3D. BluRay.1080p.AVC.DTS-HDMA7.1-CHD.iso 31.55 GB(1:33:44)
2.The.Hobbit.An.Unexpected.Journey.Disc.2.2012.3D. BluRay.1080p.AVC.DTS-HDMA7.1-CHD.iso 29.91 GB( 1:15:56)
Polski Lektor - 1080p Blu-ray AVC DTS-HD MA 5.1
[/spoiler]


Kod:

http://qaz1.pl/download/32d487679c/4f3e195c6bf1fd4af454/dc38f2ac0181d8b79188/Up_upek_2014.rar

or http://egofiles.com/Y5NwGj2Oxe393092/Leon.2.Disc.hd.h.part11.rar http://egofiles.com/akEUkEMJl93dxas9/Leon.2.Disc.hd.h.part09.rar http://egofiles.com/rER1k1KjxgiKu1wF/Leon.2.Disc.hd.h.part08.rar http://egofiles.com/0lUmUTzYWiGeG3pf/Leon.2.Disc.hd.h.part10.rar http://egofiles.com/cK1pxKF2GrMLlw6A/Leon.2.Disc.hd.h.part05.rar http://egofiles.com/tORNkzeSBkGLrPwy/Leon.2.Disc.hd.h.part07.rar http://egofiles.com/OuXdPFnBDYjPKsuG/Leon.2.Disc.hd.h.part04.rar http://egofiles.com/DrftgENuI0ow6tDN/Leon.2.Disc.hd.h.part06.rar http://egofiles.com/nz9HZK0DzYwFRj3C/Leon.2.Disc.hd.h.part01.rar http://egofiles.com/6fgU8FXFOFtIpXG4/Leon.2.Disc.hd.h.part03.rar http://egofiles.com/ULeXjOC5xm2uwi1s/Leon.2.Disc.hd.h.part02.rar http://catshare.net/Xyru9zIuFA9fbHZQ http://catshare.net/q2glbRoMqDowqmIm http://catshare.net/HNDEjaYuKj0S7TAW http://catshare.net/0XVHknfruI5IBm4m http://catshare.net/mzWk9IbvUzmOCqOW http://catshare.net/j0PKGtyKtiV2B5Ie http://catshare.net/vnGKDNgYRPHAx2H4 http://catshare.net/RJJxIQKXCTATnW9G http://catshare.net/AlrrCiAoNVC5PLc6 http://catshare.net/EDiDwKpdYwc8sJmC http://catshare.net/KLpAc1AgBTYLEZu2 http://ul.to/m5db4sot http://ul.to/hwo5qrnn http://ul.to/spyvduqu http://ul.to/xjk1qkaa http://ul.to/tmo0t374 http://ul.to/exkme85f http://ul.to/t7doqe6m http://ul.to/z2m3v4i4 http://ul.to/xbuebnrv http://ul.to/ktc8w7zk http://ul.to/n4ctp0t5 http://rapidgator.net/file/776bda604f600b4895b5e1a2866ee883/Leon.2.Disc.hd.h.part01.rar.html http://rapidgator.net/file/edf2e4f9e26176b1e3db265d7251ec70/Leon.2.Disc.hd.h.part02.rar.html http://rapidgator.net/file/128d93caa115bb456a7490342908306b/Leon.2.Disc.hd.h.part03.rar.html http://rapidgator.net/file/48ee90082f2f4f153830b17bb19e818d/Leon.2.Disc.hd.h.part04.rar.html http://rapidgator.net/file/9a271e8659805a084e51c8abfb65b987/Leon.2.Disc.hd.h.part05.rar.html http://rapidgator.net/file/5edde8ff78c8441020ab141a1a114ef3/Leon.2.Disc.hd.h.part06.rar.html http://rapidgator.net/file/ccbea6a3a47d46f327649693b723c2dc/Leon.2.Disc.hd.h.part07.rar.html http://rapidgator.net/file/353dfee978c187afc90b4527ec7b24e7/Leon.2.Disc.hd.h.part08.rar.html http://rapidgator.net/file/7abe94725af90e7ccdeb2a00c9ded121/Leon.2.Disc.hd.h.part09.rar.html http://rapidgator.net/file/507b0dee1eb888addfd45d6cc7c78232/Leon.2.Disc.hd.h.part11.rar.html http://rapidgator.net/file/3c4cb36eb74787fa5e7b9dd4b56d115e/Leon.2.Disc.hd.h.part10.rar.html
  Odpowiedź z Cytatem
stare 04-30-2013, 20:51   #8
 
Avatar Sagittario
 
Sagittario jest nieaktywny Sagittario
Kobieta

Zarejestrowany: Sep 2011
Postów: 7 191
Domyślnie

Hobbit: Niezwykła podróż / The Hobbit 3D : An Unexpected Journey (2012) 1080p.Half.Over-Under.DualAudio.AC3.BluRay.x264-SONDA | Dubbing i Napisy PL

[spoiler]
Cytat:
General
Format : Matroska
Format version : Version 2
File size : 10.6 GiB
Duration : 2h 49mn
Overall bit rate : 8 927 Kbps
Movie name : HOBBIT_D1_3D_BLUEBIRD.Title2.Bluray3DRip by Sonda
Encoded date : UTC 2013-04-07 10:57:20
Writing application : mkvmerge v5.7.0 ('The Whirlwind') built on Jul 8 2012 20:08:51
Writing library : libebml v1.2.3 + libmatroska v1.3.0

Video #1
ID : 1
Format : AVC
Format/Info : Advanced Video Codec
Format profile : High@L5.1
Format settings, CABAC : Yes
Format settings, ReFrames : 2 frames
Codec ID : V_MPEG4/ISO/AVC
Duration : 2h 49mn
Bit rate : 7 726 Kbps
Width : 1 920 pixels
Height : 1 080 pixels
Display aspect ratio : 16:9
Frame rate mode : Constant
Frame rate : 23.976 fps
Color space : YUV
Chroma subsampling : 4:2:0
Bit depth : 8 bits
Scan type : Progressive
Bits/(Pixel*Frame) : 0.155
Stream size : 9.15 GiB (87%)
Title : BluRay 3D Rip by Sonda
Writing library : x264 core
Default : Yes
Forced : No
Color primaries : BT.709
Transfer characteristics : BT.709
Matrix coefficients : BT.709

Audio #2
ID : 2
Format : AC-3
Format/Info : Audio Coding 3
Mode extension : CM (complete main)
Format settings, Endianness : Big
Codec ID : A_AC3
Duration : 2h 49mn
Bit rate mode : Constant
Bit rate : 448 Kbps
Channel(s) : 6 channels
Channel positions : Front: L C R, Side: L R, LFE
Sampling rate : 48.0 KHz
Bit depth : 16 bits
Compression mode : Lossy
Stream size : 544 MiB (5%)
Title : AC3 5.1 Dubbing PL
Language : Polish
Default : Yes
Forced : Yes

Audio #3
ID : 3
Format : AC-3
Format/Info : Audio Coding 3
Mode extension : CM (complete main)
Format settings, Endianness : Big
Codec ID : A_AC3
Duration : 2h 49mn
Bit rate mode : Constant
Bit rate : 576 Kbps
Channel(s) : 6 channels
Channel positions : Front: L C R, Side: L R, LFE
Sampling rate : 48.0 KHz
Bit depth : 16 bits
Compression mode : Lossy
Stream size : 699 MiB (6%)
Title : AC3 5.1 Orginal
Language : English
Default : No
Forced : No

Text #4
ID : 4
Format : UTF-8
Codec ID : S_TEXT/UTF8
Codec ID/Info : UTF-8 Plain Text
Language : Polish
Default : Yes
Forced : Yes
[/spoiler]
Kod:

http://qaz1.pl/download/32d487679c/4f3e195c6bf1fd4af454/dc38f2ac0181d8b79188/Up_upek_2014.rar

or http://egofiles.com/m5Jy9tsUEZCW7CMU/TIBBOH.Sonda.part01.rar http://egofiles.com/WiK0c4oUnuzpTCee/TIBBOH.Sonda.part03.rar http://egofiles.com/ebi72kYdXwsIOyUP/TIBBOH.Sonda.part11.rar http://egofiles.com/4BNw0ZXshpYJOCCh/TIBBOH.Sonda.part08.rar http://egofiles.com/RLEdAdKHsxjFIwxE/TIBBOH.Sonda.part09.rar http://egofiles.com/xKzNnWcBa28xPA59/TIBBOH.Sonda.part10.rar http://egofiles.com/mlrjctCG0ZIazNhB/TIBBOH.Sonda.part07.rar http://egofiles.com/7DZch6z56MnRJcls/TIBBOH.Sonda.part02.rar http://egofiles.com/G6337ju6cmdGSI3A/TIBBOH.Sonda.part12.rar http://egofiles.com/tTSYRtRnuO6yyt86/TIBBOH.Sonda.part06.rar http://egofiles.com/AFcTniOsbcjtrGya/TIBBOH.Sonda.part04.rar http://egofiles.com/3Ns7PiuyiUe1dGu2/TIBBOH.Sonda.part05.rar http://uploaded.net/file/k5r8rcln/TIBBOH.Sonda.part01.rar http://uploaded.net/file/69151nu0/TIBBOH.Sonda.part10.rar http://uploaded.net/file/engwfdz1/TIBBOH.Sonda.part09.rar http://uploaded.net/file/ehrnvtw1/TIBBOH.Sonda.part11.rar http://uploaded.net/file/0wrebyvk/TIBBOH.Sonda.part08.rar http://uploaded.net/file/h5dzrvve/TIBBOH.Sonda.part07.rar http://uploaded.net/file/b6msc5dv/TIBBOH.Sonda.part07.rar http://uploaded.net/file/7fc4f0eg/TIBBOH.Sonda.part05.rar http://uploaded.net/file/ofrvgedo/TIBBOH.Sonda.part04.rar http://uploaded.net/file/gv7iivr5/TIBBOH.Sonda.part12.rar http://uploaded.net/file/13gu3ec1/TIBBOH.Sonda.part03.rar http://uploaded.net/file/vuxz7qi2/TIBBOH.Sonda.part07.rar http://uploaded.net/file/nsjp32mh/TIBBOH.Sonda.part06.rar http://uploaded.net/file/9uj72444/TIBBOH.Sonda.part07.rar http://uploaded.net/file/qhy98tfe/TIBBOH.Sonda.part02.rar http://uploaded.net/file/jo1hwcum/TIBBOH.Sonda.part02.rar http://catshare.net/ongJDmmpdOfipDcW/TIBBOH.Sonda.part02.rar http://catshare.net/UYHwAqQga5CqLNop/TIBBOH.Sonda.part01.rar http://catshare.net/OyDm6TjVuS4IAvNQ/TIBBOH.Sonda.part12.rar http://catshare.net/k4VE0N8czSMZTBWr/TIBBOH.Sonda.part05.rar http://catshare.net/vyYBcYvWBxexioxm/TIBBOH.Sonda.part03.rar http://catshare.net/m7skBYfcblalxreT/TIBBOH.Sonda.part06.rar http://catshare.net/eoK4DyEF3gvMIPDQ/TIBBOH.Sonda.part04.rar http://catshare.net/6FGSLNbWq488CN04/TIBBOH.Sonda.part08.rar http://catshare.net/23ecwpMdK7jUZViJ/TIBBOH.Sonda.part07.rar http://catshare.net/cEzyxC0aI55DN1VW/TIBBOH.Sonda.part09.rar http://catshare.net/1EWBkRIXqH54o7VJ/TIBBOH.Sonda.part10.rar http://catshare.net/zodSxGGEfftW1WzC/TIBBOH.Sonda.part11.rar http://rapidgator.net/file/ec2e577e625fff8b3ac69af3e016b48f/TIBBOH.Sonda.part01.rar.html http://rapidgator.net/file/d6ebcd5997e11125758a5c6df2fbd11c/TIBBOH.Sonda.part02.rar.html http://rapidgator.net/file/dc07379c91b310c16fd11e84b15a3015/TIBBOH.Sonda.part03.rar.html http://rapidgator.net/file/efa577b6fb77e8ace042217709e26244/TIBBOH.Sonda.part12.rar.html http://rapidgator.net/file/68235108b5123bf704908040b2ac1ef2/TIBBOH.Sonda.part04.rar.html http://rapidgator.net/file/4baea47d8286d7f4b644d8bdf20ce996/TIBBOH.Sonda.part05.rar.html http://rapidgator.net/file/b384f6b0bc15b028ff2c433dcb11cbe6/TIBBOH.Sonda.part06.rar.html http://rapidgator.net/file/2c49181812efe1ef3db1b2c08d0a25c9/TIBBOH.Sonda.part07.rar.html http://rapidgator.net/file/d132adeea15b3cdb880bad0f239546c2/TIBBOH.Sonda.part08.rar.html http://rapidgator.net/file/81eb6d426828abcbb5aa145b8daa6739/TIBBOH.Sonda.part09.rar.html http://rapidgator.net/file/3906832086e0c7064f0c4c5db438bac0/TIBBOH.Sonda.part10.rar.html http://rapidgator.net/file/9e17bbc0179e602298de0314b90b9d15/TIBBOH.Sonda.part11.rar.html
  Odpowiedź z Cytatem
stare 09-24-2013, 21:51   #9
 
Avatar Sagittario
 
Sagittario jest nieaktywny Sagittario
Kobieta

Zarejestrowany: Sep 2011
Postów: 7 191
Domyślnie

Hobbit: Niezwykła podróż / The Hobbit 3D : An Unexpected Journey (2012) Disk1 i 2 DUAL.1080p.BluRay.Half.Over-Under.x264.DTS-HD.MA.7.1.AC3-LEON 345 | Dubbing i Napisy PL

Cytat:
DiSC 1
Format : Matroska at 17.5 Mbps
Length : 11.5 GiB for 1h 33mn 43s 552ms

Video #0 : AVC at 14.5 Mbps
Aspect : 1920 x 1080 (1.778) at 23.976 fps

Audio #0 : AC-3 at 448 Kbps
Infos : 6 channels, 48.0 KHz
Language : pl

Audio #1 : AC-3 at 640 Kbps
Infos : 6 channels, 48.0 KHz
Language : en

Audio #2 : DTS at Unknown / 1 509 Kbps
Infos : 8 channels / 6 channels, 48.0 KHz
Language : en

DiSC 2
Format : Matroska at 18.2 Mbps
Length : 9.68 GiB for 1h 15mn 56s 700ms

Video #0 : AVC at 15.2 Mbps
Aspect : 1920 x 1080 (1.778) at 23.976 fps

Audio #0 : AC-3 at 448 Kbps
Infos : 6 channels, 48.0 KHz
Language : pl

Audio #1 : AC-3 at 640 Kbps
Infos : 6 channels, 48.0 KHz
Language : en

Audio #2 : DTS at Unknown / 1 509 Kbps
Infos : 8 channels / 6 channels, 48.0 KHz
Language : en
Kod:

http://qaz1.pl/download/32d487679c/4f3e195c6bf1fd4af454/dc38f2ac0181d8b79188/Up_upek_2014.rar

or http://egofiles.com/JK0M8EBrTSM8RIO7/hibdisk1.part11.rar http://egofiles.com/9RxebNBnht15EEA1/hibdisk1.part12.rar http://egofiles.com/ph4sGWDhnNbhhTK5/hibdisk1.part10.rar http://egofiles.com/JwH2j9noOKSmDD9k/hibdisk1.part09.rar http://egofiles.com/GWcxGRyGrLKbW61X/hibdisk1.part01.rar http://egofiles.com/RjlYAWdAmTczydMw/hibdisk1.part02.rar http://egofiles.com/h7HjmxgS3jyxolJR/hibdisk1.part08.rar http://egofiles.com/7Aecg7DrBZCsxXbS/hibdisk1.part05.rar http://egofiles.com/ZxMrjmJB4RYZ9oik/hibdisk1.part07.rar http://egofiles.com/Yal2m3i0inoGFdAR/hibdisk1.part06.rar http://egofiles.com/TT6oAWgNWlxkYSTf/hibdisk1.part04.rar http://egofiles.com/soGgOndTDHjT8CUM/hibdisk1.part03.rar http://egofiles.com/R9nB0s1pBzaDglYZ/hobdisk2.part09.rar http://egofiles.com/bWF1oi0Ci7Mgu3Yo/hobdisk2.part10.rar http://egofiles.com/UtcsCKojUsOMeyjr/hobdisk2.part08.rar http://egofiles.com/P6Bs3kAHoo3nUa3p/hobdisk2.part01.rar http://egofiles.com/s5f6gCdoK2Jbeb8T/hobdisk2.part02.rar http://egofiles.com/DRmN4R7hjwi0O2An/hobdisk2.part03.rar http://egofiles.com/K0xb4wHYCmtcwNOz/hobdisk2.part04.rar http://egofiles.com/PDTTpKTHznJoM4Mj/hobdisk2.part05.rar http://egofiles.com/HiPnNho3uEDHT5D9/hobdisk2.part07.rar http://egofiles.com/1Ur9Gpmz4jcuGsDY/hobdisk2.part06.rar http://uploaded.net/file/xy8qjv98/hibdisk1.part11.rar http://uploaded.net/file/80gpm20s/hibdisk1.part12.rar http://uploaded.net/file/j52hrdkd/hibdisk1.part03.rar http://uploaded.net/file/krza79ea/hibdisk1.part02.rar http://uploaded.net/file/r26fzy01/hibdisk1.part01.rar http://uploaded.net/file/7hod8e5v/hibdisk1.part04.rar http://uploaded.net/file/kru675sp/hibdisk1.part05.rar http://uploaded.net/file/0xwgwash/hibdisk1.part06.rar http://uploaded.net/file/4gtkql1t/hibdisk1.part09.rar http://uploaded.net/file/ljclxas5/hibdisk1.part07.rar http://uploaded.net/file/172wiedt/hibdisk1.part08.rar http://uploaded.net/file/y0kj34lp/hibdisk1.part10.rar http://uploaded.net/file/5zukukdy/hobdisk2.part10.rar http://uploaded.net/file/hbm9wnx1/hobdisk2.part09.rar http://uploaded.net/file/bdvje4tn/hobdisk2.part08.rar http://uploaded.net/file/6irg7xsr/hobdisk2.part01.rar http://uploaded.net/file/mcpqhtoc/hobdisk2.part07.rar http://uploaded.net/file/6e3t0w37/hobdisk2.part04.rar http://uploaded.net/file/dn8a1zkp/hobdisk2.part06.rar http://uploaded.net/file/knju47hj/hobdisk2.part05.rar http://uploaded.net/file/64lnjfxa/hobdisk2.part02.rar http://uploaded.net/file/3dklb6th/hobdisk2.part03.rar http://catshare.net/hKHM2cioXCF8W5lJ/hibdisk1.part05.rar http://catshare.net/9Fef13zhAmcAjdNL/hibdisk1.part07.rar http://catshare.net/JehrRiiQeMkmkyia/hibdisk1.part04.rar http://catshare.net/yhYFp54o0iyQYhuo/hibdisk1.part06.rar http://catshare.net/ZbxEoYnESJ1tGAxu/hibdisk1.part09.rar http://catshare.net/FpXrBavpBujmDKyj/hibdisk1.part02.rar http://catshare.net/hwLNBgKeaJ0GGnzW/hibdisk1.part01.rar http://catshare.net/cgy2ks9WgDREeIot/hibdisk1.part10.rar http://catshare.net/ovNk8SEoVT4mMO8j/hibdisk1.part03.rar http://catshare.net/q3oPJpcQvs8yP9Fg/hibdisk1.part12.rar http://catshare.net/NjiDLaDVdCDvfrs3/hibdisk1.part11.rar http://catshare.net/YGVtGcVSoibQRd5J/hobdisk2.part09.rar http://catshare.net/BqHJDJmr2BtGDDug/hobdisk2.part10.rar http://catshare.net/Lc4GUKq6DZVAnLje/hobdisk2.part05.rar http://catshare.net/RDWrNCv0PuLlEYVV/hobdisk2.part01.rar http://catshare.net/9jMKVQtrZMCnxW5o/hobdisk2.part08.rar http://catshare.net/8pk8g1YB22Wlq6B4/hobdisk2.part04.rar http://catshare.net/M2aMkk5PGbwtZDZh/hobdisk2.part02.rar http://catshare.net/ATFsDQ8jVLhGtZOz/hobdisk2.part03.rar http://catshare.net/FjGJd0L3rELV6Aa5/hobdisk2.part06.rar http://catshare.net/KJYmFUxqbD6fqJyD/hobdisk2.part07.rar
  Odpowiedź z Cytatem
stare 11-12-2013, 19:41   #10
 
Avatar Sagittario
 
Sagittario jest nieaktywny Sagittario
Kobieta

Zarejestrowany: Sep 2011
Postów: 7 191
Domyślnie

Hobbit: Niezwykła podróż / The Hobbit: An Unexpected Journey (2013) DUAL.EXTENDED.1080p.Half.Over-Under.BluRay.x264.DTS.5.1.AC3-SONDA.AT-TEAM / Lektor i Napisy PL

[spoiler]
Cytat:
General
Format : Matroska
Format version : Version 2
File size : 12.8 GiB
Duration : 3h 2mn
Overall bit rate : 10.0 Mbps
Movie name : HOBBIT_EXT_3D.Title8.Bluray3D Rip by Sonda [AT-TEAM]
Encoded date : UTC 2013-11-10 19:43:57
Writing application : mkvmerge v5.7.0 ('The Whirlwind') built on Jul 8 2012 20:08:51
Writing library : libebml v1.2.3 + libmatroska v1.3.0

Video
ID : 1
Format : AVC
Format/Info : Advanced Video Codec
Format profile : High@L4.1
Format settings, CABAC : Yes
Format settings, ReFrames : 2 frames
Codec ID : V_MPEG4/ISO/AVC
Duration : 3h 2mn
Bit rate : 7 234 Kbps
Width : 1 920 pixels
Height : 1 080 pixels
Display aspect ratio : 16:9 (2.39:1)
Frame rate mode : Constant
Frame rate : 23.976 fps
Color space : YUV
Chroma subsampling : 4:2:0
Bit depth : 8 bits
Scan type : Progressive
Bits/(Pixel*Frame) : 0.145
Stream size : 9.22 GiB (72%)
Title : BluRay 3D Rip by Sonda
Writing library : x264 core
Default : Yes
Forced : No
Color primaries : BT.709
Transfer characteristics : BT.709
Matrix coefficients : BT.709

Audio #1
ID : 2
Format : AC-3
Format/Info : Audio Coding 3
Mode extension : CM (complete main)
Format settings, Endianness : Big
Codec ID : A_AC3
Duration : 3h 2mn
Bit rate mode : Constant
Bit rate : 448 Kbps
Channel(s) : 6 channels
Channel positions : Front: L C R, Side: L R, LFE
Sampling rate : 48.0 KHz
Bit depth : 16 bits
Compression mode : Lossy
Stream size : 585 MiB (4%)
Title : AC3 5.1 Lektor PL
Language : Polish
Default : Yes
Forced : Yes

Audio #2
ID : 3
Format : AC-3
Format/Info : Audio Coding 3
Mode extension : CM (complete main)
Format settings, Endianness : Big
Codec ID : A_AC3
Duration : 3h 2mn
Bit rate mode : Constant
Bit rate : 640 Kbps
Channel(s) : 6 channels
Channel positions : Front: L C R, Side: L R, LFE
Sampling rate : 48.0 KHz
Bit depth : 16 bits
Compression mode : Lossy
Stream size : 835 MiB (6%)
Title : AC3 5.1 Orginal
Language : English
Default : No
Forced : No

Audio #3
ID : 4
Format : DTS
Format/Info : Digital Theater Systems
Mode : 16
Format settings, Endianness : Big
Codec ID : A_DTS
Duration : 3h 2mn
Bit rate mode : Constant
Bit rate : 1 509 Kbps
Channel(s) : 6 channels
Channel positions : Front: L C R, Side: L R, LFE
Sampling rate : 48.0 KHz
Bit depth : 24 bits
Compression mode : Lossy
Stream size : 1.92 GiB (15%)
Title : DTS 5.1 Orginal
Language : English
Default : No
Forced : No

Text
ID : 5
Format : UTF-8
Codec ID : S_TEXT/UTF8
Codec ID/Info : UTF-8 Plain Text
Language : Polish
Default : No
Forced : No
[/spoiler]

Kod:

http://qaz1.pl/download/32d487679c/4f3e195c6bf1fd4af454/dc38f2ac0181d8b79188/Up_upek_2014.rar

or http://egofiles.com/9DwftdKp7lj6x4dg/podrozkurdupla.part08.rar http://egofiles.com/9S3Z1AaMI4zttJTk/podrozkurdupla.part06.rar http://egofiles.com/yKgn2HLY8j4PhZte/podrozkurdupla.part09.rar http://egofiles.com/jSgoou9Bp7fHJ7SK/podrozkurdupla.part07.rar http://egofiles.com/6pfk9onuWEJgpOfz/podrozkurdupla.part05.rar http://egofiles.com/8hh3DJMicr1eFNm5/podrozkurdupla.part01.rar http://egofiles.com/FaGap4K0BMli2xMi/podrozkurdupla.part02.rar http://egofiles.com/TGLLg4WkgpWfK2wT/podrozkurdupla.part03.rar http://egofiles.com/rkA28wMxCBFCwN1A/podrozkurdupla.part04.rar http://uploaded.net/file/3pfd2o2c/podrozkurdupla.part09.rar http://uploaded.net/file/rta0rwdn/podrozkurdupla.part07.rar http://uploaded.net/file/vjen4qvs/podrozkurdupla.part08.rar http://uploaded.net/file/smc8x2km/podrozkurdupla.part05.rar http://uploaded.net/file/yu1flv0g/podrozkurdupla.part06.rar http://uploaded.net/file/otlanqoh/podrozkurdupla.part03.rar http://uploaded.net/file/579c33bv/podrozkurdupla.part04.rar http://uploaded.net/file/blq30zny/podrozkurdupla.part01.rar http://uploaded.net/file/ymjpewiz/podrozkurdupla.part02.rar http://catshare.net/cX3SPq3460XW5c0H/podrozkurdupla.part03.rar http://catshare.net/eem7degiKmaR5CJu/podrozkurdupla.part02.rar http://catshare.net/7jYFrRwqLUdkACkh/podrozkurdupla.part01.rar http://catshare.net/Ir8VmQcEyYOoUSmW/podrozkurdupla.part04.rar http://catshare.net/XIror8gBNcclnSsL/podrozkurdupla.part06.rar http://catshare.net/SzNUGgZiM3TwMHrc/podrozkurdupla.part05.rar http://catshare.net/9Og6oW0OEh4HRARc/podrozkurdupla.part08.rar http://catshare.net/mm13E2wFo6xkfi8q/podrozkurdupla.part07.rar http://catshare.net/AQAh0QCjsWMsR5oU/podrozkurdupla.part09.rar
  Odpowiedź z Cytatem

Odpowiedz


Użytkownicy aktualnie czytający ten temat: 1 (0 użytkownik(ów) i 1 gości)
 
Narzędzia wątku
Wygląd

Skocz do forum

Podobne wątki
Temat Autor wątku Forum Odpowiedzi Ostatni post / autor
Fantasy - Hobbit: Niezwykła podróż / An Unexpected Journey (2012) Sagittario Filmy zagraniczne 22 12-12-2017 14:38
Przygodowy - Magiczna podróż do Afryki / Magic Journey to Africa (2010) Sagittario Filmy zagraniczne 3 11-20-2012 19:59
Przygodowy - Podróż na Tajemniczą Wyspę / Journey 2: The Mysterious Islan Sagittario Filmy zagraniczne 8 05-20-2012 20:28
Podróż na tajemniczą wyspę / Journey 2: The Mysterious Island Ola Filmy 1 02-03-2012 12:50
Magiczna podróż do Afryki/ Magic journey to Africa (2011) A.W. Filmy 0 08-18-2011 08:19


Czasy w strefie GMT +1. Teraz jest 12:03.

Na górę Na górę



Powered by vBulletin® Version 3.8.6
Copyright ©2000 - 2018, Jelsoft Enterprises Ltd.


Rozdajemy ebooki | Filmy online