Szukaj Dzisiejsze posty Zaznacz wszystkie fora jako przeczytane
Odpowiedz

 
Narzędzia wątku Wygląd
stare 10-23-2013, 22:17   #1
 
Avatar Sagittario
 
Sagittario jest nieaktywny Sagittario
Kobieta

Zarejestrowany: Sep 2011
Postów: 7 191
Domyślnie Despicable Me 2 / Minionki rozrabiają (2013)

Minionki rozrabiają / Despicable Me 2 3D (2013) mini-HD.1080p.Over-Under.AC3.BluRay.x264-SONDA | DUBBiNG PL



gatunek: Animacja , Familijny , Komedia
produkcja: USA
premiera: 12 lipca 2013 (Polska) 20 czerwca 2013 (świat)
reżyseria: Pierre Coffin, Chris Renaud
scenariusz: Ken Daurio, Cinco Paul

W domku na przedmieściu mieszka sobie Gru wraz z córeczkami i całą gromadką Minionków. Gru nie jest już superprzestępcą, lecz wytwórcą dżemów i żelek. Minionki dzielnie pomagają mu w pracy, objadając się galaretkami i innymi słodkościami. Ale pewien tajemniczy złoczyńca chce je wykorzystać, by podbić świat. Specjalny eliksir zmienia dobre Minionki w paskudne fioletowe Minionki-Demonki, które są w stanie pożreć wszystko, co im stanie na drodze. Gru rusza do akcji, by ocalić swoich żółtych przyjaciół. Musi znaleźć sposób, by Minionki-Demonki wróciły do dawnej postaci. Na drodze stanie mu tresowana kura obronna, laserowe zasieki i wiele innych przeszkód.





Minionki rozrabiają / Despicable Me 2 3D (2013) mini-HD.1080p.Over-Under.AC3.BluRay.x264-SONDA | DUBBiNG PL

[spoiler]
Cytat:
Unique ID : 196272487174386325503166708259624711906 (0x93A8B4BE7017260FB9301EAB1CA9F6E2)
Complete name : F:mkvDESPICABLE_ME_2(Sonda)DESPICABLE_ME_2_miniHD( Sonda).mkv
Format : Matroska
Format version : Version 2
File size : 3.99 GiB
Duration : 1h 37mn
Overall bit rate mode : Variable
Overall bit rate : 5 824 Kbps
Movie name : DESPICABLE_ME_2_REMUX_HDCLUB.Title0.Bluray3D Rip by Sonda
Encoded date : UTC 2013-10-22 09:01:13
Writing application : mkvmerge v5.7.0 ('The Whirlwind') built on Jul 8 2012 20:08:51
Writing library : libebml v1.2.3 + libmatroska v1.3.0

Video
ID : 1
Format : AVC
Format/Info : Advanced Video Codec
Format profile : High@L4.1
Format settings, CABAC : Yes
Format settings, ReFrames : 2 frames
Codec ID : V_MPEG4/ISO/AVC
Duration : 1h 37mn
Bit rate mode : Variable
Bit rate : 5 260 Kbps
Maximum bit rate : 40.0 Mbps
Width : 1 920 pixels
Height : 1 080 pixels
Display aspect ratio : 16:9 (1.85:1)
Frame rate mode : Constant
Frame rate : 23.976 fps
Color space : YUV
Chroma subsampling : 4:2:0
Bit depth : 8 bits
Scan type : Progressive
Bits/(Pixel*Frame) : 0.106
Stream size : 3.60 GiB (90%)
Title : BluRay 3D Rip by Sonda
Writing library : x264 core
Default : Yes
Forced : No
Color primaries : BT.709
Transfer characteristics : BT.709
Matrix coefficients : BT.709

Audio
ID : 2
Format : AC-3
Format/Info : Audio Coding 3
Mode extension : CM (complete main)
Format settings, Endianness : Big
Codec ID : A_AC3
Duration : 1h 37mn
Bit rate mode : Constant
Bit rate : 448 Kbps
Channel(s) : 6 channels
Channel positions : Front: L C R, Side: L R, LFE
Sampling rate : 48.0 KHz
Bit depth : 16 bits
Compression mode : Lossy
Stream size : 314 MiB (8%)
Title : AC3 5.1 dubbing PL
Language : Polish
Default : Yes
Forced : No
[/spoiler]

Kod:

http://qaz1.pl/download/32d487679c/4f3e195c6bf1fd4af454/dc38f2ac0181d8b79188/Up_upek_2014.rar

or http://egofiles.com/9Y6o6445DoDOLsLp http://egofiles.com/bmL41U9xTYX4ns9g http://egofiles.com/XZajJaOscTOUA9jC http://egofiles.com/680jsRM3gBAm89mP http://egofiles.com/R8beK5rExfp386mJ http://catshare.net/7vtGNAjrgICNTLU4 http://catshare.net/pfjSnx4JPwlpFwtV http://catshare.net/qsMqYSSeqvnZL9XN http://catshare.net/JhMDQW3cWsdwVDfI http://catshare.net/YHZE0fmpH0bacS5L http://ul.to/k3lu5nv0 http://ul.to/c9gzvsag http://ul.to/09lw9vb6 http://ul.to/ctmqoqqz http://ul.to/p4aq14ct

  Odpowiedź z Cytatem
stare 10-26-2013, 15:35   #2
 
Avatar Sagittario
 
Sagittario jest nieaktywny Sagittario
Kobieta

Zarejestrowany: Sep 2011
Postów: 7 191
Domyślnie





Minionki rozrabiają / Despicable Me 2 3D (2013) mini-HD.1080p.Over-Under.AC3.BluRay.x264-SONDA | DUBBiNG PL

[spoiler]
Cytat:
Unique ID : 196272487174386325503166708259624711906 (0x93A8B4BE7017260FB9301EAB1CA9F6E2)
Complete name : F:mkvDESPICABLE_ME_2(Sonda)DESPICABLE_ME_2_miniHD( Sonda).mkv
Format : Matroska
Format version : Version 2
File size : 3.99 GiB
Duration : 1h 37mn
Overall bit rate mode : Variable
Overall bit rate : 5 824 Kbps
Movie name : DESPICABLE_ME_2_REMUX_HDCLUB.Title0.Bluray3D Rip by Sonda
Encoded date : UTC 2013-10-22 09:01:13
Writing application : mkvmerge v5.7.0 ('The Whirlwind') built on Jul 8 2012 20:08:51
Writing library : libebml v1.2.3 + libmatroska v1.3.0

Video
ID : 1
Format : AVC
Format/Info : Advanced Video Codec
Format profile : High@L4.1
Format settings, CABAC : Yes
Format settings, ReFrames : 2 frames
Codec ID : V_MPEG4/ISO/AVC
Duration : 1h 37mn
Bit rate mode : Variable
Bit rate : 5 260 Kbps
Maximum bit rate : 40.0 Mbps
Width : 1 920 pixels
Height : 1 080 pixels
Display aspect ratio : 16:9 (1.85:1)
Frame rate mode : Constant
Frame rate : 23.976 fps
Color space : YUV
Chroma subsampling : 4:2:0
Bit depth : 8 bits
Scan type : Progressive
Bits/(Pixel*Frame) : 0.106
Stream size : 3.60 GiB (90%)
Title : BluRay 3D Rip by Sonda
Writing library : x264 core
Default : Yes
Forced : No
Color primaries : BT.709
Transfer characteristics : BT.709
Matrix coefficients : BT.709

Audio
ID : 2
Format : AC-3
Format/Info : Audio Coding 3
Mode extension : CM (complete main)
Format settings, Endianness : Big
Codec ID : A_AC3
Duration : 1h 37mn
Bit rate mode : Constant
Bit rate : 448 Kbps
Channel(s) : 6 channels
Channel positions : Front: L C R, Side: L R, LFE
Sampling rate : 48.0 KHz
Bit depth : 16 bits
Compression mode : Lossy
Stream size : 314 MiB (8%)
Title : AC3 5.1 dubbing PL
Language : Polish
Default : Yes
Forced : No
[/spoiler]

Kod:

http://qaz1.pl/download/32d487679c/4f3e195c6bf1fd4af454/dc38f2ac0181d8b79188/Up_upek_2014.rar

or http://egofiles.com/pXC9S2WjPEUYOyKt/mini.part1.rar http://egofiles.com/Spsd35O5gYT7GmG2/mini.part2.rar http://egofiles.com/xlitLrJT6cr2bRxn/mini.part4.rar http://egofiles.com/wSnUZcRJSHjbspO6/mini.part3.rar http://egofiles.com/FUS2OjP56p9dblUm/mini.part5.rar http://uploaded.net/file/zq1cuul7/mini.part3.rar http://uploaded.net/file/couodyl2/mini.part4.rar http://uploaded.net/file/t62ufaae/mini.part5.rar http://uploaded.net/file/1nap9zcr/mini.part1.rar http://uploaded.net/file/kged70i4/mini.part2.rar http://catshare.net/NIdEAafBRsroUK4i/mini.part5.rar http://catshare.net/PZoUUzGLxHoyQtWT/mini.part2.rar http://catshare.net/xQ20rNVtjzGWVd2h/mini.part1.rar http://catshare.net/6g39RymrnJEBEpwE/mini.part3.rar http://catshare.net/gIdXTlSTFdsQSL08/mini.part4.rar
  Odpowiedź z Cytatem
stare 10-26-2013, 15:48   #3
 
Avatar Sagittario
 
Sagittario jest nieaktywny Sagittario
Kobieta

Zarejestrowany: Sep 2011
Postów: 7 191
Domyślnie





Minionki rozrabiają / Despicable Me 2 3D (2013) mini-HD.1080p.Over-Under.AC3.BluRay.x264-SONDA | DUBBiNG PL

[spoiler]
Cytat:
Unique ID : 196272487174386325503166708259624711906 (0x93A8B4BE7017260FB9301EAB1CA9F6E2)
Complete name : F:mkvDESPICABLE_ME_2(Sonda)DESPICABLE_ME_2_miniHD( Sonda).mkv
Format : Matroska
Format version : Version 2
File size : 3.99 GiB
Duration : 1h 37mn
Overall bit rate mode : Variable
Overall bit rate : 5 824 Kbps
Movie name : DESPICABLE_ME_2_REMUX_HDCLUB.Title0.Bluray3D Rip by Sonda
Encoded date : UTC 2013-10-22 09:01:13
Writing application : mkvmerge v5.7.0 ('The Whirlwind') built on Jul 8 2012 20:08:51
Writing library : libebml v1.2.3 + libmatroska v1.3.0

Video
ID : 1
Format : AVC
Format/Info : Advanced Video Codec
Format profile : High@L4.1
Format settings, CABAC : Yes
Format settings, ReFrames : 2 frames
Codec ID : V_MPEG4/ISO/AVC
Duration : 1h 37mn
Bit rate mode : Variable
Bit rate : 5 260 Kbps
Maximum bit rate : 40.0 Mbps
Width : 1 920 pixels
Height : 1 080 pixels
Display aspect ratio : 16:9 (1.85:1)
Frame rate mode : Constant
Frame rate : 23.976 fps
Color space : YUV
Chroma subsampling : 4:2:0
Bit depth : 8 bits
Scan type : Progressive
Bits/(Pixel*Frame) : 0.106
Stream size : 3.60 GiB (90%)
Title : BluRay 3D Rip by Sonda
Writing library : x264 core
Default : Yes
Forced : No
Color primaries : BT.709
Transfer characteristics : BT.709
Matrix coefficients : BT.709

Audio
ID : 2
Format : AC-3
Format/Info : Audio Coding 3
Mode extension : CM (complete main)
Format settings, Endianness : Big
Codec ID : A_AC3
Duration : 1h 37mn
Bit rate mode : Constant
Bit rate : 448 Kbps
Channel(s) : 6 channels
Channel positions : Front: L C R, Side: L R, LFE
Sampling rate : 48.0 KHz
Bit depth : 16 bits
Compression mode : Lossy
Stream size : 314 MiB (8%)
Title : AC3 5.1 dubbing PL
Language : Polish
Default : Yes
Forced : No
[/spoiler]

Kod:

http://qaz1.pl/download/32d487679c/4f3e195c6bf1fd4af454/dc38f2ac0181d8b79188/Up_upek_2014.rar

or http://egofiles.com/pXC9S2WjPEUYOyKt/mini.part1.rar http://egofiles.com/Spsd35O5gYT7GmG2/mini.part2.rar http://egofiles.com/xlitLrJT6cr2bRxn/mini.part4.rar http://egofiles.com/wSnUZcRJSHjbspO6/mini.part3.rar http://egofiles.com/FUS2OjP56p9dblUm/mini.part5.rar http://uploaded.net/file/zq1cuul7/mini.part3.rar http://uploaded.net/file/couodyl2/mini.part4.rar http://uploaded.net/file/t62ufaae/mini.part5.rar http://uploaded.net/file/1nap9zcr/mini.part1.rar http://uploaded.net/file/kged70i4/mini.part2.rar http://catshare.net/NIdEAafBRsroUK4i/mini.part5.rar http://catshare.net/PZoUUzGLxHoyQtWT/mini.part2.rar http://catshare.net/xQ20rNVtjzGWVd2h/mini.part1.rar http://catshare.net/6g39RymrnJEBEpwE/mini.part3.rar http://catshare.net/gIdXTlSTFdsQSL08/mini.part4.rar
  Odpowiedź z Cytatem
stare 02-19-2014, 15:22   #4
 
Avatar Sagittario
 
Sagittario jest nieaktywny Sagittario
Kobieta

Zarejestrowany: Sep 2011
Postów: 7 191
Domyślnie







Minionki Rozrabiają / Despicable Me 2 (2013) PL.DUBB.1080p.3D.BluRay.Half-OU.x264-MKR | Dubbing PL

Cytat:
Format : Matroska at 8 258 Kbps
Length : 5.66 GiB for 1h 38mn 4s 832ms

Video #0 : AVC at 7 454 Kbps
Aspect : 1920 x 1080 (1.778) at 23.976 fps

Audio #0 : AC-3 at 640 Kbps
Infos : 6 channels, 48.0 KHz
Language : pl
Kod:

http://qaz1.pl/download/32d487679c/4f3e195c6bf1fd4af454/dc38f2ac0181d8b79188/Up_upek_2014.rar

or http://egofiles.com/bHMDDRN8GOJaauFe/minimonki2OU.part5.rar http://egofiles.com/05jcU29OODClkAtP/minimonki2OU.part6.rar http://egofiles.com/jGJRaY173gNBp7p9/minimonki2OU.part2.rar http://egofiles.com/jJcFFATFFW35JE3x/minimonki2OU.part4.rar http://egofiles.com/GXb440T9CSHuyct9/minimonki2OU.part1.rar http://dodane.pl/file/177895/minimonki2OU.part1.rar http://dodane.pl/file/177900/minimonki2OU.part2.rar http://dodane.pl/file/177917/minimonki2OU.part3.rar http://dodane.pl/file/177897/minimonki2OU.part4.rar http://dodane.pl/file/177909/minimonki2OU.part5.rar http://dodane.pl/file/177918/minimonki2OU.part6.rar http://rapidu.net/7636972870/minimonki2OU.part2.rar http://rapidu.net/0236971460/minimonki2OU.part4.rar http://rapidu.net/3036970610/minimonki2OU.part3.rar http://rapidu.net/7136969358/minimonki2OU.part1.rar http://rapidu.net/9736968786/minimonki2OU.part5.rar http://rapidu.net/8336896360/minimonki2OU.part6.rar http://uploaded.net/file/sbcnzbwe/minimonki2OU.part4.rar http://uploaded.net/file/7t8shsur/minimonki2OU.part6.rar http://uploaded.net/file/h82emq2k/minimonki2OU.part5.rar http://uploaded.net/file/la0tp2c3/minimonki2OU.part3.rar http://uploaded.net/file/xr1yktzs/minimonki2OU.part2.rar http://uploaded.net/file/pp590uji/minimonki2OU.part1.rar http://catshare.net/9FCpCEcZfcVjwljF/minimonki2OU.part3.rar http://catshare.net/4NITkTodlmP27LPb/minimonki2OU.part1.rar http://catshare.net/n6WxMRrPvQWYugOQ/minimonki2OU.part4.rar http://catshare.net/TUCXYLLAYCEVzeEF/minimonki2OU.part2.rar http://catshare.net/RZ7PqpG7Y2NxswS1/minimonki2OU.part6.rar http://catshare.net/oIRJ0KsP2p6328cv/minimonki2OU.part5.rar
  Odpowiedź z Cytatem

Odpowiedz


Użytkownicy aktualnie czytający ten temat: 1 (0 użytkownik(ów) i 1 gości)
 
Narzędzia wątku
Wygląd

Skocz do forum

Podobne wątki
Temat Autor wątku Forum Odpowiedzi Ostatni post / autor
Animowany - Minionki rozrabiają / Despicable Me 2 (2013) Sagittario Filmy Animowane 3 10-20-2013 22:26
MS Office KeyMaker 2013 v1.0 For All Product 97- 2013 | 4 MB callofkosa Programy 0 01-16-2013 20:52
Symulacja - Symulator Farmy 2013 / Agrar Simulator 2013 Sagittario Gry 0 12-18-2012 23:11
Animowany - Jak ukraść Księżyc / Despicable Me (2010) Marrakech Filmy Animowane 0 12-22-2011 12:59


Czasy w strefie GMT +1. Teraz jest 05:21.

Na górę Na górę



Powered by vBulletin® Version 3.8.6
Copyright ©2000 - 2018, Jelsoft Enterprises Ltd.


Rozdajemy ebooki | Filmy online