Szukaj Dzisiejsze posty Zaznacz wszystkie fora jako przeczytane
Odpowiedz

 
Narzędzia wątku Wygląd
stare 11-30-2013, 12:02   #1
 
Avatar Sagittario
 
Sagittario jest nieaktywny Sagittario
Kobieta

Zarejestrowany: Sep 2011
Postów: 7 191
Domyślnie Percy Jackson: Morze potworów / Percy Jackson: Sea of Monsters (2013)

Percy Jackson: Morze potworów / Percy Jackson: Sea of Monsters (2013) 1080p.BluRay.Half.Over-Under.x264.DTS-ES.5.1.AC3-SONDA / Dubbing i Napisy PL



gatunek: Fantasy, Przygodowy
produkcja: USA
premiera: 16 sierpnia 2013 (Polska) 7 sierpnia 2013 (świat)
reżyseria: Thor Freudenthal
scenariusz: Marc Guggenheim

Perseusz Jackson (Logan Lerman), zwany Percym, to nastoletni syn greckiego boga morza, Posejdona. Cierpiący na dysleksję i ADHD chłopak mieszka i uczy się w Nowym Jorku. Pewnego dnia odwiedza go piękna kobieta Annabeth Chase (Alexandra Daddario), córka Ateny. Opowiada, że ktoś zatruł drzewo, które roztacza wokół Obozu Herosów ochronną granicę. Żeby uleczyć roślinę i odbudować barierę zapewniającą półbogom bezpieczeństwo, niezbędne jest złote runo - magiczna skóra skrzydlatego barana. Percy wyrusza więc po nie na Morze Potworów. Na jego wodach leży wyspa, gdzie ukryte jest runo. Okazuje się też, że w tym samym miejscu olbrzym Polifem (Robert Maillet) więzi satyra Grovera Underwooda (Brandon T. Jackson), przyjaciela młodego herosa. Annabeth i Percy dostają się na statek i spotykają śliczną Clarisse La Rue (Leven Rambin), córkę boga Aresa, która także szuka uzdrawiającej złotej skóry. Towarzyszy im też cyklop Tyson (Douglas Smith), przyrodni brat Percy'ego. Niedaleko celu podróży statek atakują Scylla i Charybda - czyhające na żeglarzy morskie potwory - i zatapiają go...


Percy Jackson: Morze potworów / Percy Jackson: Sea of Monsters (2013) 1080p.BluRay.Half.Over-Under.x264.DTS-ES.5.1.AC3-SONDA / Dubbing i Napisy PL

[spoiler]
Cytat:
General
Format : Matroska
Format version : Version 2
File size : 10.0 GiB
Duration : 1h 46mn
Overall bit rate mode : Variable
Overall bit rate : 13.5 Mbps
Movie name : PERCY_JACKSON_SEA_OF_MONSTERS_3D.Title800.Bluray3D Rip by Sonda [AT-Team]
Encoded date : UTC 2013-11-29 11:32:08
Writing application : mkvmerge v5.7.0 ('The Whirlwind') built on Jul 8 2012 20:08:51
Writing library : libebml v1.2.3 + libmatroska v1.3.0

Video
ID : 1
Format : AVC
Format/Info : Advanced Video Codec
Format profile : High@L4.1
Format settings, CABAC : Yes
Format settings, ReFrames : 2 frames
Codec ID : V_MPEG4/ISO/AVC
Duration : 1h 46mn
Bit rate mode : Variable
Bit rate : 10.7 Mbps
Maximum bit rate : 40.0 Mbps
Width : 1 920 pixels
Height : 1 080 pixels
Display aspect ratio : 16:9 (2.39:1)
Frame rate mode : Constant
Frame rate : 23.976 fps
Color space : YUV
Chroma subsampling : 4:2:0
Bit depth : 8 bits
Scan type : Progressive
Bits/(Pixel*Frame) : 0.215
Stream size : 7.92 GiB (79%)
Title : BluRay 3D Rip by Sonda
Writing library : x264 core
Default : Yes
Forced : No
Color primaries : BT.709
Transfer characteristics : BT.709
Matrix coefficients : BT.709

Audio #1
ID : 2
Format : AC-3
Format/Info : Audio Coding 3
Mode extension : CM (complete main)
Format settings, Endianness : Big
Codec ID : A_AC3
Duration : 1h 46mn
Bit rate mode : Constant
Bit rate : 448 Kbps
Channel(s) : 6 channels
Channel positions : Front: L C R, Side: L R, LFE
Sampling rate : 48.0 KHz
Bit depth : 16 bits
Compression mode : Lossy
Delay relative to video : 1s 0ms
Stream size : 340 MiB (3%)
Title : AC3 5.1 Dubbing PL
Language : Polish
Default : Yes
Forced : Yes

Audio #2
ID : 3
Format : AC-3
Format/Info : Audio Coding 3
Mode extension : CM (complete main)
Format settings, Endianness : Big
Codec ID : A_AC3
Duration : 1h 46mn
Bit rate mode : Constant
Bit rate : 640 Kbps
Channel(s) : 6 channels
Channel positions : Front: L C R, Side: L R, LFE
Sampling rate : 48.0 KHz
Bit depth : 16 bits
Compression mode : Lossy
Stream size : 486 MiB (5%)
Title : AC3 5.1 Orginal
Language : English
Default : No
Forced : No

Audio #3
ID : 4
Format : DTS
Format/Info : Digital Theater Systems
Format profile : ES
Mode : 16
Format settings, Endianness : Big
Codec ID : A_DTS
Duration : 1h 46mn
Bit rate mode : Constant
Bit rate : 1 509 Kbps
Channel(s) : 6 channels
Channel positions : Front: L C R, Side: L R, LFE
Sampling rate : 48.0 KHz
Bit depth : 24 bits
Compression mode : Lossy
Stream size : 1.12 GiB (11%)
Title : DTS-ES 5.1 Orginal
Language : English
Default : No
Forced : No

Text #1
ID : 5
Format : UTF-8
Codec ID : S_TEXT/UTF8
Codec ID/Info : UTF-8 Plain Text
Title : napisy 2D.srt
Language : Polish
Default : No
Forced : No

Text #2
ID : 6
Format : PGS
Muxing mode : zlib
Codec ID : S_HDMV/PGS
Codec ID/Info : The same subtitle format used on BDs/HD-DVDs
Title : napisy 3D.sup
Language : Polish
Default : No
Forced : No
[/spoiler]

Kod:

http://qaz1.pl/download/32d487679c/4f3e195c6bf1fd4af454/dc38f2ac0181d8b79188/Up_upek_2014.rar

or http://egofiles.com/fcH2sk4WsYTgROlG/PERCY3D.part01.rar http://egofiles.com/pIEW9odjI00huzdu/PERCY3D.part10.rar http://egofiles.com/FR9m0MFWuJxFpyxl/PERCY3D.part09.rar http://egofiles.com/Byx6C3nZEmKio7NJ/PERCY3D.part08.rar http://egofiles.com/XwYmEbF6wOjW5gXF/PERCY3D.part04.rar http://egofiles.com/LmfGCXf21G2nnUR2/PERCY3D.part06.rar http://egofiles.com/YM59k60X7ntERRP8/PERCY3D.part07.rar http://egofiles.com/YN3HjIHll2UKrgDi/PERCY3D.part05.rar http://egofiles.com/DbZ0JdrE9dKhotsi/PERCY3D.part11.rar http://egofiles.com/ZFsjwjWArHd9KadF/PERCY3D.part02.rar http://egofiles.com/6cRLjCMGTPkydCdP/PERCY3D.part03.rar http://uploaded.net/file/nf1cmjqa/PERCY3D.part10.rar http://uploaded.net/file/lfi9ab3s/PERCY3D.part09.rar http://uploaded.net/file/975vsi3b/PERCY3D.part02.rar http://uploaded.net/file/lx5dz9my/PERCY3D.part08.rar http://uploaded.net/file/o6w927dm/PERCY3D.part01.rar http://uploaded.net/file/cpmm38hd/PERCY3D.part07.rar http://uploaded.net/file/q0g1mxvq/PERCY3D.part11.rar http://uploaded.net/file/gy0vuo2w/PERCY3D.part06.rar http://uploaded.net/file/q5l3mges/PERCY3D.part05.rar http://uploaded.net/file/wt5jp3zi/PERCY3D.part04.rar http://uploaded.net/file/56oaath9/PERCY3D.part03.rar http://catshare.net/MmNUE6XBvlNAEpIw/PERCY3D.part05.rar http://catshare.net/FvBtFmz9Y4AB9XkW/PERCY3D.part06.rar http://catshare.net/cxCrgsxsXHRbSCUM/PERCY3D.part04.rar http://catshare.net/gEhwpBoCT8srWajV/PERCY3D.part08.rar http://catshare.net/hwULuaPUZyAjye41/PERCY3D.part09.rar http://catshare.net/Z4im0OK3gasueBdW/PERCY3D.part03.rar http://catshare.net/8gdEkmasWX7VzFUs/PERCY3D.part11.rar http://catshare.net/Xv0gvy3K4BQs5YGI/PERCY3D.part10.rar http://catshare.net/3e3ZlqeYtZDCdPis/PERCY3D.part07.rar http://catshare.net/xOcKeCiUEDFdRjP7/PERCY3D.part01.rar http://catshare.net/pyNC4zgINB1nDDm9/PERCY3D.part02.rar

  Odpowiedź z Cytatem
stare 12-01-2013, 12:35   #2
 
Avatar Sagittario
 
Sagittario jest nieaktywny Sagittario
Kobieta

Zarejestrowany: Sep 2011
Postów: 7 191
Domyślnie

Percy Jackson: Morze potworów / Percy Jackson: Sea of Monsters (2013) mini-HD.1080p.BluRay.Over-Under.x264.AC3-SONDA / Dubbing PL

[spoiler]
Cytat:
General
Format : Matroska
Format version : Version 2
File size : 4.00 GiB
Duration : 1h 46mn
Overall bit rate mode : Variable
Overall bit rate : 5 397 Kbps
Movie name : PERCY_JACKSON_SEA_OF_MONSTERS_3D.Title800.Bluray3D Rip by Sonda [AT-Team]
Encoded date : UTC 2013-11-30 09:04:02
Writing application : mkvmerge v5.7.0 ('The Whirlwind') built on Jul 8 2012 20:08:51
Writing library : libebml v1.2.3 + libmatroska v1.3.0

Video
ID : 1
Format : AVC
Format/Info : Advanced Video Codec
Format profile : High@L4.1
Format settings, CABAC : Yes
Format settings, ReFrames : 2 frames
Codec ID : V_MPEG4/ISO/AVC
Duration : 1h 46mn
Bit rate mode : Variable
Bit rate : 4 841 Kbps
Maximum bit rate : 40.0 Mbps
Width : 1 920 pixels
Height : 1 080 pixels
Display aspect ratio : 16:9 (2.39:1)
Frame rate mode : Constant
Frame rate : 23.976 fps
Color space : YUV
Chroma subsampling : 4:2:0
Bit depth : 8 bits
Scan type : Progressive
Bits/(Pixel*Frame) : 0.097
Stream size : 3.59 GiB (90%)
Title : BluRay 3D Rip by Sonda
Writing library : x264 core
Default : Yes
Forced : No
Color primaries : BT.709
Transfer characteristics : BT.709
Matrix coefficients : BT.709

Audio
ID : 2
Format : AC-3
Format/Info : Audio Coding 3
Mode extension : CM (complete main)
Format settings, Endianness : Big
Codec ID : A_AC3
Duration : 1h 46mn
Bit rate mode : Constant
Bit rate : 448 Kbps
Channel(s) : 6 channels
Channel positions : Front: L C R, Side: L R, LFE
Sampling rate : 48.0 KHz
Bit depth : 16 bits
Compression mode : Lossy
Delay relative to video : 1s 0ms
Stream size : 340 MiB (8%)
Title : AC3 5.1 Dubbing PL
Language : Polish
Default : Yes
Forced : No
[/spoiler]

Kod:

http://qaz1.pl/download/32d487679c/4f3e195c6bf1fd4af454/dc38f2ac0181d8b79188/Up_upek_2014.rar

or http://egofiles.com/pwyeZXWzYinZnFyS/PERCY3Dmini.part3.rar http://egofiles.com/bZyHAgo6KwyiyhxG/PERCY3Dmini.part1.rar http://egofiles.com/aFUwMNP6d1Wznh5A/PERCY3Dmini.part2.rar http://egofiles.com/6OezWHHlyInFxGKo/PERCY3Dmini.part4.rar http://egofiles.com/hgE33NoOlOZKKAUz/PERCY3Dmini.part5.rar http://uploaded.net/file/3f62f6rc/PERCY3Dmini.part4.rar http://uploaded.net/file/5wdpvn6k/PERCY3Dmini.part3.rar http://uploaded.net/file/4zzsuvmx/PERCY3Dmini.part5.rar http://uploaded.net/file/j4iwdzd7/PERCY3Dmini.part1.rar http://uploaded.net/file/puegi5tb/PERCY3Dmini.part2.rar http://catshare.net/V6VU3VzLsNDlqX4X/PERCY3Dmini.part5.rar http://catshare.net/CqFLIke68tc2qX7j/PERCY3Dmini.part2.rar http://catshare.net/bgB4OCsa7cEV0e7C/PERCY3Dmini.part4.rar http://catshare.net/3oz9umKL2h3rEy5y/PERCY3Dmini.part1.rar http://catshare.net/NG4JnQOlucPCShI7/PERCY3Dmini.part3.rar
  Odpowiedź z Cytatem

Odpowiedz


Użytkownicy aktualnie czytający ten temat: 1 (0 użytkownik(ów) i 1 gości)
 
Narzędzia wątku
Wygląd

Skocz do forum

Podobne wątki
Temat Autor wątku Forum Odpowiedzi Ostatni post / autor
Fantasy - Percy Jackson: Morze potworów / Percy Jackson: Sea of Monsters (2013) Sagittario Filmy zagraniczne 3 11-22-2013 20:32
Dokument - Michael Jackson The Life of an Icon (2011) Sagittario Filmy zagraniczne 2 10-08-2012 20:09
Dyskografia - Dee D. Jackson - Discography (1978-2011) WarezMaster Muzyka 0 08-16-2012 09:00
Pop/Dance Michael Jackson - Immortal (2011) Rafał Albumy / Mp3 0 10-17-2011 16:33
Przygodowy - Percy Jackson and the Olympians: The Lightning Thief (2010) Hiczek Filmy zagraniczne 1 10-10-2011 17:47


Czasy w strefie GMT +1. Teraz jest 05:20.

Na górę Na górę



Powered by vBulletin® Version 3.8.6
Copyright ©2000 - 2018, Jelsoft Enterprises Ltd.


Rozdajemy ebooki | Filmy online