Szukaj Dzisiejsze posty Zaznacz wszystkie fora jako przeczytane
Odpowiedz

 
Narzędzia wątku Wygląd
stare 06-05-2013, 22:32   #1
 
Avatar Sagittario
 
Sagittario jest nieaktywny Sagittario
Kobieta

Zarejestrowany: Sep 2011
Postów: 7 191
Domyślnie Jack pogromca olbrzymów / Jack the Giant Slayer (2013)

Jack pogromca olbrzymów / Jack the Giant Slayer (2013) 1080p.BluRay.Half-OU.x264-CHD3D



gatunek: Fantasy, Przygodowy
produkcja: USA
premiera: 15 marca 2013 (Polska) 27 lutego 2013 (świat)
reżyseria: Bryan Singer
scenariusz: Darren Lemke, Christopher McQuarrie, Dan Studney

Pradawny spór ożywa, kiedy młody mężczyzna imieniem Jack (Nicholas Hoult) przypadkowo otwiera bramę między światem ludzi, a przerażającym światem olbrzymów. Olbrzymy, po raz pierwszy od stuleci uwolnione na ziemi, usiłują odzyskać panowanie nad lądem, który kiedyś utraciły, a Jack musi stanąć do walki i je powstrzymać. W walce o królestwo, lud i miłość odważnej księżniczki musi zmierzyć się z niepokonanymi wojownikami, choć dotychczas wierzył, że istnieją tylko w legendach... Teraz sam może stać się legendą.







Jack pogromca olbrzymów / Jack the Giant Slayer (2013) 1080p.BluRay.Half-OU.x264-CHD3D

Cytat:
Type.................: 3D Blu-ray Half Over Under Encode
Encoder..............: zman
Audio1...............: English 5.1 DTS @ 1509 Kbps
Subtitles............: No
Genre................: Adventure | Fantasy
Format...............: MKV
Video Bitrate........: 8 982 Kbps ( crf17 )
Length...............: 1h 54mn
Codec................: X264
Resolution...........: 1080P
FPS..................: 23.976
Original Format......: 3D Bluray
Source...............: Jack The Giant Slayer 2013 3D BluRay 1080p AVC DTS-HD MA5.1-CHDBits
Kod:

http://qaz1.pl/download/32d487679c/4f3e195c6bf1fd4af454/dc38f2ac0181d8b79188/Up_upek_2014.rar

or http://egofiles.com/zhegLTi2g3WKgYfR/Jack.3DOU.part08.rar http://egofiles.com/rTC3kyiZeKFeYkU3/Jack.3DOU.part06.rar http://egofiles.com/MAZnIAxuzpzZXOBb/Jack.3DOU.part07.rar http://egofiles.com/Eaw3SRkDBU2YmkSB/Jack.3DOU.part05.rar http://egofiles.com/Mc3XnopxSm5UA8sR/Jack.3DOU.part04.rar http://egofiles.com/LnSAxE9Z0LCRSsb8/Jack.3DOU.part09.rar http://egofiles.com/KtaJu498E3xt7iuT/Jack.3DOU.part03.rar http://egofiles.com/2EuROCM09RJZ3WLZ/Jack.3DOU.part02.rar http://egofiles.com/tx8tLldwCkjKGwkx/Jack.3DOU.part01.rar http://uploaded.net/file/ygeycaiw/Jack.3DOU.part06.rar http://uploaded.net/file/bczy319h/Jack.3DOU.part02.rar http://uploaded.net/file/12h59zms/Jack.3DOU.part03.rar http://uploaded.net/file/t4m22p2a/Jack.3DOU.part08.rar http://uploaded.net/file/4ybjvv6t/Jack.3DOU.part07.rar http://uploaded.net/file/f97sychk/Jack.3DOU.part04.rar http://uploaded.net/file/qt9fb5pz/Jack.3DOU.part05.rar http://uploaded.net/file/4zp494ji/Jack.3DOU.part09.rar http://uploaded.net/file/fergq2s0/Jack.3DOU.part01.rar http://catshare.net/1HvLJIRwL0fmr12P/Jack.3DOU.part01.rar http://catshare.net/3GZUy8uyKdBNBS1q/Jack.3DOU.part02.rar http://catshare.net/Ne04YLSreJx0Thpm/Jack.3DOU.part03.rar http://catshare.net/tY0MLDMJwSIPD3MS/Jack.3DOU.part04.rar http://catshare.net/scqbDFs8oG6J0woT/Jack.3DOU.part05.rar http://catshare.net/EnSjhnFIDYBtnpWQ/Jack.3DOU.part09.rar http://catshare.net/CUondy6eQsGHU0or/Jack.3DOU.part08.rar http://catshare.net/VN3KdiRLcH2JERcu/Jack.3DOU.part07.rar http://catshare.net/rQrd83gvSA8YH0CY/Jack.3DOU.part06.rar

  Odpowiedź z Cytatem
stare 06-14-2013, 15:19   #2
 
Avatar Sagittario
 
Sagittario jest nieaktywny Sagittario
Kobieta

Zarejestrowany: Sep 2011
Postów: 7 191
Domyślnie

Jack pogromca olbrzymów 3D / Jack the Giant Slayer 3D (2013) mini-HD.1080p.Over-Under.AC3.BluRay.x264-SONDA / Napisy PL

[spoiler]
Cytat:
General
Format : Matroska
Format version : Version 2
File size : 3.98 GiB
Duration : 1h 54mn
Overall bit rate mode : Variable
Overall bit rate : 4 987 Kbps
Movie name : JACK_T_GNT_SLYR_3D_BLUEBIRD.Title98.Bluray3D Rip by Sonda
Encoded date : UTC 2013-06-12 10:00:09
Writing application : mkvmerge v5.7.0 ('The Whirlwind') built on Jul 8 2012 20:08:51
Writing library : libebml v1.2.3 + libmatroska v1.3.0

Video
ID : 1
Format : AVC
Format/Info : Advanced Video Codec
Format profile : High@L4.1
Format settings, CABAC : Yes
Format settings, ReFrames : 2 frames
Codec ID : V_MPEG4/ISO/AVC
Duration : 1h 54mn
Bit rate mode : Variable
Bit rate : 4 440 Kbps
Maximum bit rate : 40.0 Mbps
Width : 1 920 pixels
Height : 1 080 pixels
Display aspect ratio : 16:9 (2.40:1)
Frame rate mode : Constant
Frame rate : 23.976 fps
Color space : YUV
Chroma subsampling : 4:2:0
Bit depth : 8 bits
Scan type : Progressive
Bits/(Pixel*Frame) : 0.089
Stream size : 3.55 GiB (89%)
Title : BluRay 3D Rip by Sonda
Writing library : x264 core
Default : Yes
Forced : No
Color primaries : BT.709
Transfer characteristics : BT.709
Matrix coefficients : BT.709

Audio
ID : 2
Format : AC-3
Format/Info : Audio Coding 3
Mode extension : CM (complete main)
Format settings, Endianness : Big
Codec ID : A_AC3
Duration : 1h 54mn
Bit rate mode : Constant
Bit rate : 448 Kbps
Channel(s) : 6 channels
Channel positions : Front: L C R, Side: L R, LFE
Sampling rate : 48.0 KHz
Bit depth : 16 bits
Compression mode : Lossy
Stream size : 366 MiB (9%)
Title : AC3 5.1 Orginal
Language : English
Default : Yes
Forced : No

Text
ID : 3
Format : UTF-8
Codec ID : S_TEXT/UTF8
Codec ID/Info : UTF-8 Plain Text
Language : Polish
Default : Yes
Forced : Yes
[/spoiler]

Kod:

http://qaz1.pl/download/32d487679c/4f3e195c6bf1fd4af454/dc38f2ac0181d8b79188/Up_upek_2014.rar

or http://egofiles.com/OR4f6LFy3o5AJzaa/JACK3d.part1.rar http://egofiles.com/7Z131shuoEnhtbSy/JACK3d.part3.rar http://egofiles.com/c0SLUTwGy9pnuh1w/JACK3d.part4.rar http://egofiles.com/m2w5luU94aSKiyss/JACK3d.part2.rar http://egofiles.com/rU8TDFLbW2u3ax3A/JACK3d.part5.rar http://uploaded.net/file/tqiyp32x/JACK3d.part3.rar http://uploaded.net/file/ynte6hkl/JACK3d.part4.rar http://uploaded.net/file/e8bwueny/JACK3d.part2.rar http://uploaded.net/file/egnnx9wg/JACK3d.part5.rar http://uploaded.net/file/612bc150/JACK3d.part1.rar http://catshare.net/fqQXBQEMsQ5CnsVI/JACK3d.part5.rar http://catshare.net/D9DBpqoUyqbMHjLB/JACK3d.part1.rar http://catshare.net/WtcENClUzrVLVPli/JACK3d.part3.rar http://catshare.net/QYdZsKmrRVeWh8EI/JACK3d.part2.rar http://catshare.net/ADEy603o9UFh4sEB/JACK3d.part4.rar
  Odpowiedź z Cytatem

Odpowiedz


Użytkownicy aktualnie czytający ten temat: 1 (0 użytkownik(ów) i 1 gości)
 
Narzędzia wątku
Wygląd

Skocz do forum

Podobne wątki
Temat Autor wątku Forum Odpowiedzi Ostatni post / autor
Fantasy - Jack pogromca olbrzymów / Jack the Giant Slayer (2013) Sagittario Filmy zagraniczne 2 09-01-2017 08:19
Jack Pogromca Olbrzymów / Jack the Giant Slayer (2013) Rafał Filmy 2 04-16-2017 05:00
Horror - Łowca potworów / Jack Brooks: Monster Slayer (2007) Sagittario Filmy zagraniczne 2 04-16-2017 04:59
Przygodowy - Jack i magiczna fasola / Jack and the Beanstalk (2010) Zeta70 Filmy zagraniczne 0 08-19-2012 14:51
Kom. Romant. - Jack uczy się pływać / Jack Goes Boating (2010) Sagittario Filmy zagraniczne 1 11-13-2011 14:49


Czasy w strefie GMT +1. Teraz jest 00:00.

Na górę Na górę



Powered by vBulletin® Version 3.8.6
Copyright ©2000 - 2018, Jelsoft Enterprises Ltd.


Rozdajemy ebooki | Filmy online